За последнюю неделю опубликовано 34 новых материалов.
Инструкция новичку Путеводитель по форуму Прокси для Telegram Показать подсказки , это бомба!

Скачать Оля Полякова - Выступление на «Лиге звезд» (2018) DVB бесплатно через торрент

  • Поучаствуй (в качестве покупателя) в любых пяти совместных покупках (кроме завершённых и "Моментальных") и получи группу "Новичок" навсегда -> ссылка на раздел
  • Получай до 480 рублей за каждого приглашенного пользователя!
    представляем Вам очередное расширение партнерской программы, подробности описаны тут -> ссылка
  • 90% материалов доступно к скачиванию после простой регистрации!
    Если же ты хочешь скачивать материалы без требования оставлять отзывы то получи группу "Новичок", 10 способов повышения описаны тут -> ссылка
  • К сожалению количество битых ссылок растет и мы уже не можем их оперативно восстанавливать поэтому просим помощи у каждого нашего пользователя.
    С сегодняшнего дня, за каждую восстановленную ссылку мы заплатим Вам.
    Подробнее тут -> ссылка
  • Перенесем твои заслуги с другого ресурса!
    Мы понимаем как сложно прокачивать аккаунты на форумах, вроде раскачал аккаунт, а тут появляется ресурс в 100 раз круче но тоже с системой прокачки и снова качать аккаунт...
    Предлагаем вам перенести Ваши заслуги на другом подобном ресурсе к нам.
    Подробности описаны тут -> ссылка
  • Вы можете получать по 2.5% с каждой покупки и продажи на маркете! Подробности в теме Партнёрская программа

Torrent_Bot

Торрент-Бот
Бот форума
4 Окт 2016
93
155
20
Исполнитель/Группа: Оля Полякова
Жанр:pOP
Год выпуска: 2018
Продолжительность: 00:32:07


Описание:
Оля Полякова выпускница Киевского национального университета культуры по классу эстрадного вокала и Киевской национальной музыкальной академии Украины имени П. И. Чайковского, имеет диплом оперной певицы. Диапазон голоса — 3 октавы. Как утверждает певица, последним и громким аккордом в процессе её обучения стал мастер-класс у самого Сета Рикса, известного тем, что он преподавал вокал таким легендам, как Майкл Джексон, Уитни Хьюстон и Мадонна.
Вот приглашение Поляковой на этот концерт:"19 мая подарим настоящий праздник жителям и гостям столицы! ✨ Вас ждут любимые песни, танцы, драйв и отличное настроение. Приходите, отшлепаем, как мы умеем!".
В этом выступлении звучит песня "Королева ночи", клип на которую набрал более 16 миллионов просмотров на Youtube.

Формат: MKV
Качество: DVB
Видео кодек: H.264
Аудио кодек: MP2
Видео: H.264, ~2 400 Kbps, 720x576@1024x576 (16:9), 25fps
Аудио: MP2, 48000Hz, 2ch, 192 kbps
Треклист
1.Я не такая
2.Номер один
3.Люли
4.Королева ночи
5.Первое лето без него
6.Шлепки
7.Бывший
MedaInfo
Polyakova_19.05.18.mkv
Format : Matroska
Format version : Version 4 / Version 2
File size : 622 MiB
Duration : 32 min 7 s
Overall bit rate : 2 708 kb/s
Writing application : Lavf57.71.100
Writing library : Lavf57.71.100
ErrorDetectionType : Per level 1

Video
ID : 1
Format : AVC
Format/Info : Advanced Video Codec
Format profile : Main@L3
Format settings : CABAC / 4 Ref Frames
Format settings, CABAC : Yes
Format settings, ReFrames : 4 frames
Codec ID : V_MPEG4/ISO/AVC
Duration : 32 min 7 s
Bit rate : 2 462 kb/s
Width : 720 pixels
Height : 576 pixels
Display aspect ratio : 16:9
Frame rate mode : Constant
Frame rate : 25.000 FPS
Standard : PAL
Color space : YUV
Chroma subsampling : 4:2:0
Bit depth : 8 bits
Scan type : MBAFF
Scan type, store method : Interleaved fields
Scan order : Top Field First
Bits/(Pixel*Frame) : 0.237
Stream size : 566 MiB (91%)
Default : Yes
Forced : No
Color range : Limited
Color primaries : BT.601 PAL
Transfer characteristics : BT.470 System B/G
Matrix coefficients : BT.470 System B/G
DURATION : 00:32:07,120000000

Audio
ID : 2
Format : MPEG Audio
Format version : Version 1
Format profile : Layer 2
Codec ID : A_MPEG/L2
Codec ID/Hint : MP2
Duration : 32 min 7 s
Bit rate mode : Constant
Bit rate : 192 kb/s
Channel(s) : 2 channels
Sampling rate : 48.0 kHz
Compression mode : Lossy
Delay relative to video : 12 ms
Stream size : 44.1 MiB (7%)
Default : Yes
Forced : No
DURATION : 00:32:07,020000000
Скриншоты
 

Вложения

  • 49,5 KB Просмотры: 1
    Личеров 0
    Сидеров 0
    Файлов 1
    Объем 622 MB

Привет!

Мы группа людей которые решили помочь другим в решении их проблем, а так же пользователям с поиском самых свежих и качественных инфопродуктов. За 4 с небольшим месяца мы создали этот форум на который заходят ежедневно тысячи человек и посещаемость постоянно растёт. Мы создали панель лицензирования для защиты PHP скриптов от воровства и SEO панель для мониторинга наших сайтов и выбора верной стратегии их развития. Мы надеемся что то что мы создали пригодится Вам и возможно Вы поможете нам развиваться и совершенствоваться вместе с Вами.

Статистика форума

Темы
406.543
Сообщения
464.667
Пользователи
83.272
Новый пользователь
viyiya3226

Приложения форума для iOS и Android


У ркн там нет власти ;)
Приватные разговоры
Помощь Пользователи
    Вы не присоединились ни к одной комнате.