За последнюю неделю опубликовано 49 новых материалов.
Инструкция новичку Путеводитель по форуму Прокси для Telegram Показать подсказки , это бомба!

Скачать Однажды в Ирландии / The Guard (2011) HDRip-AVC от MediaBit | P бесплатно через торрент

  • Поучаствуй (в качестве покупателя) в любых пяти совместных покупках (кроме завершённых и "Моментальных") и получи группу "Новичок" навсегда -> ссылка на раздел
  • Получай до 480 рублей за каждого приглашенного пользователя!
    представляем Вам очередное расширение партнерской программы, подробности описаны тут -> ссылка
  • 90% материалов доступно к скачиванию после простой регистрации!
    Если же ты хочешь скачивать материалы без требования оставлять отзывы то получи группу "Новичок", 10 способов повышения описаны тут -> ссылка
  • К сожалению количество битых ссылок растет и мы уже не можем их оперативно восстанавливать поэтому просим помощи у каждого нашего пользователя.
    С сегодняшнего дня, за каждую восстановленную ссылку мы заплатим Вам.
    Подробнее тут -> ссылка
  • Перенесем твои заслуги с другого ресурса!
    Мы понимаем как сложно прокачивать аккаунты на форумах, вроде раскачал аккаунт, а тут появляется ресурс в 100 раз круче но тоже с системой прокачки и снова качать аккаунт...
    Предлагаем вам перенести Ваши заслуги на другом подобном ресурсе к нам.
    Подробности описаны тут -> ссылка
  • Вы можете получать по 2.5% с каждой покупки и продажи на маркете! Подробности в теме Партнёрская программа
Если Вы не хотите скачивать, Вы всегда можетепосмотретьонлайн, просто нажмите кнопку ниже :

Открыть плеер

Torrent_Bot

Торрент-Бот
Бот форума
4 Окт 2016
93
160
20





Однажды в Ирландии / The Guard




Информация о фильме:

Название: Однажды в Ирландии
Оригинальное название: The Guard
Год выхода: 2011
Жанр: триллер, комедия, криминал
Режиссер: Джон Майкл МакДона

В ролях: Брендан Глисон, Дон Чидл, Марк Стронг, Лиам Каннингэм, Финола Флэнаган, Дэвид Уилмот, Лоуренс Кинлан, Катарина Час, Доминик МакЭллигот, Гари Лайдон

Описание: Женщины, выпивка и веселые шутки – вот радости добродушного ирландского полицейского, сержанта Джерри Бойла. Он никогда не помышлял о геройстве, пока однажды в городишке Голуэй не появился агент ФБР, который призвал незадачливого служителя порядка помочь ему накрыть международную банду наркоторговцев. Смогут ли сработаться веселый рыжий ирландец и решительный афроамериканец? Ведь дело, за которое они взялись, окажется таким же непредсказуемым, как и они сами...



Страна: Ирландия
Студия: Aegis Film Fund, Crescendo Productions, EDS Pictures
Продолжительность: 01:35:49
Перевод: Профессиональный многоголосый - Проект Продакшн



Информация о файле:
Кодек: AVC
Формат: MKV
Качество: HDRip-AVC
Видео: MPEG-4 AVC, 720х306 (2,35:1), 1 001 Кбит/сек, 23,976 кадра/сек, 0.189
Аудио RU: AAC-HE, 2 ch, 48 kHz, 96 kbps
Субтитры: Russian (Full), English (Full)
Чаптеры: Да

|

Трейлер

Скриншоты
MediaInfo
Общее
Уникальный идентификатор : 102109314155593434590278135326961328664 (0x4CD189DFF0C1512962D11A614FBC6218)
Полное имя : D:uTorrentРипы_от_wolf1245_MediaBitThe Guard_(2011)_wolf1245_MediaBit.mkv
Формат : Matroska
Версия формата : Version 4
Размер файла : 753 Мбайт
Продолжительность : 1 ч. 35 м.
Общий поток : 1 099 Кбит/сек
Название фильма : Однажды в Ирландии / The Guard_(2011)_wolf1245_MediaBit
Дата кодирования : UTC 2020-08-22 12:08:39
Программа кодирования : mkvmerge v49.0.0 ('Sick Of Losing Soulmates') 64-bit
Библиотека кодирования : libebml v1.4.0 + libmatroska v1.6.1
Обложка : Yes
Attachments : Cover.jpg

Видео
Идентификатор : 1
Формат : AVC
Формат/Информация : Advanced Video Codec
Профиль формата : [email protected]
Настройки формата : CABAC / 11 Ref Frames
Параметр CABAC формата : Да
Параметр RefFrames формата : 11 кадров
Идентификатор кодека : V_MPEG4/ISO/AVC
Продолжительность : 1 ч. 35 м.
Битрейт : 1 001 Кбит/сек
Ширина : 720 пикселей
Высота : 306 пикселей
Соотношение сторон : 2,35:1
Режим частоты кадров : Постоянный
Частота кадров : 23,976 (24000/1001) кадра/сек
Цветовое пространство : YUV
Субдискретизация насыщенности : 4:2:0
Битовая глубина : 8 бит
Тип развёртки : Прогрессивная
Бит/(Пиксели*Кадры) : 0.189
Размер потока : 686 Мбайт (91%)
Заголовок : wolf1245_MediaBit
Библиотека кодирования : x264 core 157 r2958 57baac4
Настройки программы : cabac=1 / ref=11 / deblock=1:-3:-3 / analyse=0x3:0x133 / me=umh / subme=11 / psy=1 / psy_rd=1.00:0.15 / mixed_ref=1 / me_range=48 / chroma_me=1 / trellis=2 / 8x8dct=1 / cqm=0 / deadzone=21,11 / fast_pskip=0 / chroma_qp_offset=-3 / threads=10 / lookahead_threads=2 / sliced_threads=0 / nr=0 / decimate=0 / interlaced=0 / bluray_compat=0 / constrained_intra=0 / bframes=11 / b_pyramid=2 / b_adapt=2 / b_bias=11 / direct=3 / weightb=1 / open_gop=0 / weightp=2 / keyint=240 / keyint_min=24 / scenecut=40 / intra_refresh=0 / rc_lookahead=60 / rc=2pass / mbtree=0 / bitrate=1001 / ratetol=1.0 / qcomp=0.60 / qpmin=0 / qpmax=69 / qpstep=4 / cplxblur=20.0 / qblur=0.5 / vbv_maxrate=50000 / vbv_bufsize=62500 / nal_hrd=none / filler=0 / ip_ratio=1.40 / pb_ratio=1.30 / aq=1:1.00
Язык : English
Default : Да
Forced : Нет
Цветовой диапазон : Limited

Аудио
Идентификатор : 2
Формат : AAC LC SBR
Формат/Информация : Advanced Audio Codec Low Complexity with Spectral Band Replication
Коммерческое название : HE-AAC
Настройки формата : Implicit
Идентификатор кодека : A_AAC-2
Продолжительность : 1 ч. 35 м.
Битрейт : 96,0 Кбит/сек
Каналы : 2 канала
Channel layout : L R
Частота : 48,0 КГц
Частота кадров : 23,438 кадра/сек (2048 SPF)
Метод сжатия : С потерями
Размер потока : 65,7 Мбайт (9%)
Заголовок : Многоголосый | Проект Продакшн
Язык : Russian
Default : Да
Forced : Нет

Текст #1
Идентификатор : 3
Формат : UTF-8
Идентификатор кодека : S_TEXT/UTF8
Идентификатор кодека/Информация : UTF-8 Plain Text
Продолжительность : 1 ч. 28 м.
Битрейт : 112 бит/сек
Count of elements : 1235
Размер потока : 72,8 Кбайт (0%)
Заголовок : Full
Язык : Russian
Default : Нет
Forced : Нет

Текст #2
Идентификатор : 4
Формат : UTF-8
Идентификатор кодека : S_TEXT/UTF8
Идентификатор кодека/Информация : UTF-8 Plain Text
Продолжительность : 1 ч. 28 м.
Битрейт : 67 бит/сек
Count of elements : 1206
Размер потока : 43,8 Кбайт (0%)
Заголовок : Full
Язык : English
Default : Нет
Forced : Нет

Меню
00:00:00.000 : :00:00:00.000
00:02:59.763 : :00:02:59.763
00:12:39.217 : :00:12:39.217
00:19:56.654 : :00:19:56.654
00:26:52.444 : :00:26:52.444
00:37:54.063 : :00:37:54.063
00:45:10.041 : :00:45:10.041
00:51:44.018 : :00:51:44.018
01:00:21.076 : :01:00:21.076
01:09:32.585 : :01:09:32.585
01:16:51.106 : :01:16:51.106
01:27:47.846 : :01:27:47.846
01:35:38.900 : :01:35:38.900

Рип от: &
 

Вложения

  • 15,7 KB Просмотры: 0
    Личеров 0
    Сидеров 0
    Файлов 1
    Объем 753,3 MB

Привет!

Мы группа людей которые решили помочь другим в решении их проблем, а так же пользователям с поиском самых свежих и качественных инфопродуктов. За 4 с небольшим месяца мы создали этот форум на который заходят ежедневно тысячи человек и посещаемость постоянно растёт. Мы создали панель лицензирования для защиты PHP скриптов от воровства и SEO панель для мониторинга наших сайтов и выбора верной стратегии их развития. Мы надеемся что то что мы создали пригодится Вам и возможно Вы поможете нам развиваться и совершенствоваться вместе с Вами.

Статистика форума

Темы
406.640
Сообщения
465.116
Пользователи
84.572
Новый пользователь
x485

Приложения форума для iOS и Android


У ркн там нет власти ;)
Приватные разговоры
Помощь Пользователи
    Вы не присоединились ни к одной комнате.