За последнюю неделю опубликовано 103 новых материалов.
Инструкция новичку Путеводитель по форуму Прокси для Telegram Показать подсказки , это бомба!

Скачать Однажды укушенный / Once Bitten (1985) HDRip | P, P2, A бесплатно через торрент

  • Поучаствуй (в качестве покупателя) в любых пяти совместных покупках (кроме завершённых и "Моментальных") и получи группу "Новичок" навсегда -> ссылка на раздел
  • Получай до 480 рублей за каждого приглашенного пользователя!
    представляем Вам очередное расширение партнерской программы, подробности описаны тут -> ссылка
  • 90% материалов доступно к скачиванию после простой регистрации!
    Если же ты хочешь скачивать материалы без требования оставлять отзывы то получи группу "Новичок", 10 способов повышения описаны тут -> ссылка
  • К сожалению количество битых ссылок растет и мы уже не можем их оперативно восстанавливать поэтому просим помощи у каждого нашего пользователя.
    С сегодняшнего дня, за каждую восстановленную ссылку мы заплатим Вам.
    Подробнее тут -> ссылка
  • Перенесем твои заслуги с другого ресурса!
    Мы понимаем как сложно прокачивать аккаунты на форумах, вроде раскачал аккаунт, а тут появляется ресурс в 100 раз круче но тоже с системой прокачки и снова качать аккаунт...
    Предлагаем вам перенести Ваши заслуги на другом подобном ресурсе к нам.
    Подробности описаны тут -> ссылка
  • Вы можете получать по 2.5% с каждой покупки и продажи на маркете! Подробности в теме Партнёрская программа
Если Вы не хотите скачивать, Вы всегда можетепосмотретьонлайн, просто нажмите кнопку ниже :

Открыть плеер

Torrent_Bot

Торрент-Бот
Бот форума
4 Окт 2016
124
96
20




«A tasty comedy.»

Информация о фильме
Название: Однажды укушенный
Оригинальное название: Once Bitten
Год выхода: 1985
Жанр: Ужасы, комедия
Режиссер: Ховард Сторм
В ролях: Лоурен Хаттон, Джим Керри, Карен Копинс, Кливон Литтл, Thomas Ballatore, Скип Лэки, Джеб Стюарт Адамс, Joseph BrutsmanStuart Charno, Робин Клейн.[/i]

Описание: Графине исполнилось 400 лет, но она все еще прекрасна. Секрет ее вечной молодости – кровь юношей-девственников.

В одном из голливудских ночных клубов графине удается отыскать «последнего девственника Америки» - Марка, который никак не может уговорить свою подружку Робин помочь ему «стать мужчиной». Марк в восторге – шикарная женщина не только приглашает его к себе за столик, но и предлагает провести ночь у нее дома!

На следующее утро Марк не может вспомнить подробности «бурной ночи», но вскоре начинает прятаться от солнечного света, одеваться в черное и предпочитать мясо с кровью. До наступления дня Хэллоуина графиня должна еще два раза вкусить невинной крови Марка, и окончательно превратить его в вампира. Но Робин решает спасти Марка, лишив его девственности…



Страна: США
Продолжительность: ~ 01:33:03
Перевод: Профессиональный (двухголосый закадровый) - ТВ-6
Перевод 2: Профессиональный (многоголосый закадровый) - Екатеринбург Арт
Перевод 3: Авторский (одноголосый закадровый) - Сергей Визгунов
Субтитры: нет

Файл
Кодек: XviD
Качество видео: HDRip
Формат видео: AVI-> //СЭМПЛ//
Видео: XviD, 720x384 (1.85:1), 23.976 fps, 1657 kbps avg
Аудио:
1 - 48 khz, AC3 Dolby Digital, 2/0 (L,R) ch, ~192 kbps [ТВ-6] VHS-TVRip
2 - 48 khz, AC3 Dolby Digital, 2/0 (L,R) ch, ~192 kbps [Екатеринбург Арт] VHSRip
3 - 48 khz, AC3 Dolby Digital, 2/0 (L,R) ch, ~192 kbps [Визгунов] VHSRip



Информация о переводах
В сэмпле вы можете сравнить переводы Екатеринбург Арт и Визгунова из моей раздачи, с такими же переводами из BDRip 720p
MediaInfo
General
Complete name : D:Однажды укушенный (ТВ-6) (Екатеринбург Арт) (Визгунов).avi
Format : AVI
Format/Info : Audio Video Interleave
File size : 1.46 GiB
Duration : 1 h 33 min
Overall bit rate : 2 252 kb/s
Movie name : Однажды укушенный / Once Bitten (ТВ-6 + Екатеринбург Арт + Визгунов)
Director : JUSTKANT
Writing application : VirtualDubMod 1.5.10.3 | www.virtualdub-fr.org || (build 2550/release)
Copyright : На русский язык фильм озвучен фирмой "СВ-Кадр" на тон-студии "Мосфильм" по заказу "М.Н.В.К." в 1996 году
Comment : Качество звука: ТВ-6 - VHS-TVRip (Glowamy), Екатеринбург Арт - VHSRip (Fikaloid) и Визгунов - VHSRip (ALEKS KV & RoxMarty)

Video
ID : 0
Format : MPEG-4 Visual
Format profile : Advanced Simple@L5
Format settings : BVOP1 / Custom Matrix
Format settings, BVOP : 1
Format settings, QPel : No
Format settings, GMC : No warppoints
Format settings, Matrix : Custom
Codec ID : XVID
Codec ID/Hint : XviD
Duration : 1 h 33 min
Bit rate : 1 657 kb/s
Width : 720 pixels
Height : 384 pixels
Display aspect ratio : 1.85:1
Frame rate : 23.976 (24000/1001) FPS
Color space : YUV
Chroma subsampling : 4:2:0
Bit depth : 8 bits
Scan type : Progressive
Compression mode : Lossy
Bits/(Pixel*Frame) : 0.250
Stream size : 1.08 GiB (74%)
Writing library : XviD 1.2.1 (UTC 2008-12-04)

Audio #1
ID : 1
Format : AC-3
Format/Info : Audio Coding 3
Commercial name : Dolby Digital
Codec ID : 2000
Duration : 1 h 33 min
Bit rate mode : Constant
Bit rate : 192 kb/s
Channel(s) : 2 channels
Channel layout : L R
Sampling rate : 48.0 kHz
Frame rate : 31.250 FPS (1536 SPF)
Compression mode : Lossy
Stream size : 128 MiB (9%)
Alignment : Split across interleaves
Interleave, duration : 42 ms (1.00 video frame)
Interleave, preload duratio : 500 ms
Title : ТВ-6: Андрей Градов и Марина Бакина
Service kind : Complete Main

Audio #2
ID : 2
Format : AC-3
Format/Info : Audio Coding 3
Commercial name : Dolby Digital
Codec ID : 2000
Duration : 1 h 33 min
Bit rate mode : Constant
Bit rate : 192 kb/s
Channel(s) : 2 channels
Channel layout : L R
Sampling rate : 48.0 kHz
Frame rate : 31.250 FPS (1536 SPF)
Compression mode : Lossy
Stream size : 128 MiB (9%)
Alignment : Split across interleaves
Interleave, duration : 42 ms (1.00 video frame)
Interleave, preload duratio : 500 ms
Title : ЕКАТЕРИНБУРГ АРТ: Андрей Ярославцев, Вячеслав Баранов и Людмила Гнилова
Service kind : Complete Main

Audio #3
ID : 3
Format : AC-3
Format/Info : Audio Coding 3
Commercial name : Dolby Digital
Codec ID : 2000
Duration : 1 h 33 min
Bit rate mode : Constant
Bit rate : 192 kb/s
Channel(s) : 2 channels
Channel layout : L R
Sampling rate : 48.0 kHz
Frame rate : 31.250 FPS (1536 SPF)
Compression mode : Lossy
Stream size : 128 MiB (9%)
Alignment : Split across interleaves
Interleave, duration : 42 ms (1.00 video frame)
Interleave, preload duratio : 500 ms
Title : Сергей Визгунов: VHSRip (пиратка)
Service kind : Complete Main

Скриншот c названием фильма

Скриншоты
 

Вложения

  • 15,7 KB Просмотры: 0
    Личеров 0
    Сидеров 0
    Файлов 1
    Объем 1,5 GB
Ваш e-mail не будет опубликован. Он потребуется для подтверждения Вашего поста.
Оформление текста Нажмите «Ввод», чтобы отправить ответ.

Привет!

Мы группа людей которые решили помочь другим в решении их проблем, а так же пользователям с поиском самых свежих и качественных инфопродуктов. За 4 с небольшим месяца мы создали этот форум на который заходят ежедневно тысячи человек и посещаемость постоянно растёт. Мы создали панель лицензирования для защиты PHP скриптов от воровства и SEO панель для мониторинга наших сайтов и выбора верной стратегии их развития. Мы надеемся что то что мы создали пригодится Вам и возможно Вы поможете нам развиваться и совершенствоваться вместе с Вами.

Статистика форума

Темы
378.796
Сообщения
418.335
Пользователи
50.349
Новый пользователь
Durdona

Приложения форума для iOS и Android


У ркн там нет власти ;)
Приватные разговоры
Помощь Пользователи
    Вы не присоединились ни к одной комнате.