За последнюю неделю опубликовано 58 новых материалов.
Инструкция новичку Путеводитель по форуму Прокси для Telegram Показать подсказки , это бомба!

Скачать Однажды тёмной ночью / One Dark Night (1982) BDRip 720p | A бесплатно через торрент

  • Поучаствуй (в качестве покупателя) в любых пяти совместных покупках (кроме завершённых и "Моментальных") и получи группу "Новичок" навсегда -> ссылка на раздел
  • Получай до 480 рублей за каждого приглашенного пользователя!
    представляем Вам очередное расширение партнерской программы, подробности описаны тут -> ссылка
  • 90% материалов доступно к скачиванию после простой регистрации!
    Если же ты хочешь скачивать материалы без требования оставлять отзывы то получи группу "Новичок", 10 способов повышения описаны тут -> ссылка
  • К сожалению количество битых ссылок растет и мы уже не можем их оперативно восстанавливать поэтому просим помощи у каждого нашего пользователя.
    С сегодняшнего дня, за каждую восстановленную ссылку мы заплатим Вам.
    Подробнее тут -> ссылка
  • Перенесем твои заслуги с другого ресурса!
    Мы понимаем как сложно прокачивать аккаунты на форумах, вроде раскачал аккаунт, а тут появляется ресурс в 100 раз круче но тоже с системой прокачки и снова качать аккаунт...
    Предлагаем вам перенести Ваши заслуги на другом подобном ресурсе к нам.
    Подробности описаны тут -> ссылка
  • Вы можете получать по 2.5% с каждой покупки и продажи на маркете! Подробности в теме Партнёрская программа
Если Вы не хотите скачивать, Вы всегда можетепосмотретьонлайн, просто нажмите кнопку ниже :

Открыть плеер

Torrent_Bot

Торрент-Бот
Бот форума
4 Окт 2016
92
163
20
Информация о фильме
Название: Однажды тёмной ночью
Оригинальное название: One Dark Night
Год выхода: 1982
Жанр: ужасы
Режиссер: Том Маклафлин
В ролях: Мег Тилли, Мелисса Ньюман, Робин Эванс, Дональд Хоттон, Элизабет Дэйли, Дэвид Мэйсон Дэниелс, Адам Уэст, Лео Горси мл.

О фильме: После странной смерти русского оккультиста Карла Рамаревича, при жизни исследовавшего всевозможные сомнительные пути достижения власти и всемогущества, в его склепе оказывается школьница Джули. Оказывается она здесь по прихоти своих подруг, решивших таким образом посвятить её в своё тайное общество. Джули требуется провести в этом склепе ночь… вместе с объявившимся призраком Карла.



Страна: США
Продолжительность: 01:29:00
Перевод: Авторский (одноголосый закадровый) Андрей Дольский
Оригинальная аудиодорожка: английский

Файл
Качество: BDRip 720p
Видео: MPEG-4 AVC, 8200 Kbps, 1280x720
Аудио 1: Russian; AC3; 48.0 KHz; 2ch; 192 Kbps | Андрей Дольский
Аудио 2: English; AC3; 48.0 KHz; 2ch; 224 Kbps | Original
Аудио 3: English; AC3; 48.0 KHz; 2ch; 192 Kbps | Commentary with director / co-writer Tom McLoughlin, and co-writer Michael Hawes
Аудио 4: English; AC3; 48.0 KHz; 2ch; 192 Kbps | Commentary with director Tom McLoughlin and producer Michael Schroeder
Субтитры: английские

Скриншоты
MediaInfo
General
Unique ID : 263067740058927225921984770963306016964 (0xC5E900F8EAD41454DFBDB7ACAD5D70C4)
Complete name : One.Dark.Night.1983.BDRip.720p.mkv
Format : Matroska
Format version : Version 4 / Version 2
File size : 5.59 GiB
Duration : 1 h 29 min
Overall bit rate : 8 997 kb/s
Encoded date : UTC 2018-09-14 09:46:49
Writing application : mkvmerge v25.0.0 ('Prog Noir') 64-bit
Writing library : libebml v1.3.6 + libmatroska v1.4.9

Video
ID : 1
Format : AVC
Format/Info : Advanced Video Codec
Format profile : [email protected]
Format settings : CABAC / 9 Ref Frames
Format settings, CABAC : Yes
Format settings, ReFrames : 9 frames
Codec ID : V_MPEG4/ISO/AVC
Duration : 1 h 29 min
Bit rate : 8 200 kb/s
Width : 1 280 pixels
Height : 720 pixels
Display aspect ratio : 16:9
Frame rate mode : Constant
Frame rate : 23.976 (24000/1001) FPS
Color space : YUV
Chroma subsampling : 4:2:0
Bit depth : 8 bits
Scan type : Progressive
Bits/(Pixel*Frame) : 0.371
Stream size : 5.10 GiB (91%)
Title : One.Dark.Night.1983.BDRip.720p.x264-MM
Writing library : x264 core 146 r2538 121396c
Encoding settings : cabac=1 / ref=9 / deblock=1:-3:-3 / analyse=0x3:0x113 / me=umh / subme=11 / psy=1 / psy_rd=1.00:0.00 / mixed_ref=1 / me_range=48 / chroma_me=1 / trellis=2 / 8x8dct=1 / cqm=0 / deadzone=21,11 / fast_pskip=0 / chroma_qp_offset=-2 / threads=12 / lookahead_threads=3 / sliced_threads=0 / nr=0 / decimate=0 / interlaced=0 / bluray_compat=0 / constrained_intra=0 / bframes=12 / b_pyramid=2 / b_adapt=2 / b_bias=0 / direct=3 / weightb=1 / open_gop=1 / weightp=2 / keyint=250 / keyint_min=23 / scenecut=40 / intra_refresh=0 / rc_lookahead=60 / rc=2pass / mbtree=0 / bitrate=8200 / ratetol=1.0 / qcomp=0.60 / qpmin=0 / qpmax=69 / qpstep=4 / cplxblur=20.0 / qblur=0.5 / vbv_maxrate=50000 / vbv_bufsize=62500 / nal_hrd=none / filler=0 / ip_ratio=1.40 / pb_ratio=1.30 / aq=1:1.10
Language : English
Default : Yes
Forced : No

Audio #1
ID : 2
Format : AC-3
Format/Info : Audio Coding 3
Codec ID : A_AC3
Duration : 1 h 28 min
Bit rate mode : Constant
Bit rate : 192 kb/s
Channel(s) : 2 channels
Channel positions : Front: L R
Sampling rate : 48.0 kHz
Frame rate : 31.250 FPS (1536 SPF)
Bit depth : 16 bits
Compression mode : Lossy
Stream size : 122 MiB (2%)
Title : AVO Андрей Дольский
Language : Russian
Default : Yes
Forced : No

Audio #2
ID : 3
Format : AC-3
Format/Info : Audio Coding 3
Codec ID : A_AC3
Duration : 1 h 28 min
Bit rate mode : Constant
Bit rate : 224 kb/s
Channel(s) : 2 channels
Channel positions : Front: L R
Sampling rate : 48.0 kHz
Frame rate : 31.250 FPS (1536 SPF)
Bit depth : 16 bits
Compression mode : Lossy
Stream size : 142 MiB (2%)
Title : Original
Language : English
Default : No
Forced : No

Audio #3
ID : 4
Format : AC-3
Format/Info : Audio Coding 3
Codec ID : A_AC3
Duration : 1 h 28 min
Bit rate mode : Constant
Bit rate : 192 kb/s
Channel(s) : 2 channels
Channel positions : Front: L R
Sampling rate : 48.0 kHz
Frame rate : 31.250 FPS (1536 SPF)
Bit depth : 16 bits
Compression mode : Lossy
Stream size : 122 MiB (2%)
Title : Commentary with director / co-writer Tom McLoughlin, and co-writer Michael Hawes
Language : English
Default : No
Forced : No

Audio #4
ID : 5
Format : AC-3
Format/Info : Audio Coding 3
Codec ID : A_AC3
Duration : 1 h 28 min
Bit rate mode : Constant
Bit rate : 192 kb/s
Channel(s) : 2 channels
Channel positions : Front: L R
Sampling rate : 48.0 kHz
Frame rate : 31.250 FPS (1536 SPF)
Bit depth : 16 bits
Compression mode : Lossy
Stream size : 122 MiB (2%)
Title : Commentary with director Tom McLoughlin and producer Michael Schroeder
Language : English
Default : No
Forced : No

Text
ID : 6
Format : PGS
Muxing mode : zlib
Codec ID : S_HDMV/PGS
Codec ID/Info : Picture based subtitle format used on BDs/HD-DVDs
Bit rate : 0 b/s
Count of elements : 1
Stream size : 21.0 Bytes (0%)
Language : English
Default : Yes
Forced : No

Menu
00:00:00.000 : en:Chapter 1
00:03:29.292 : en:Chapter 2
00:08:11.741 : en:Chapter 3
00:14:25.865 : en:Chapter 4
00:20:58.298 : en:Chapter 5
00:24:48.195 : en:Chapter 6
00:31:56.456 : en:Chapter 7
00:36:19.427 : en:Chapter 8
00:42:50.651 : en:Chapter 9
00:49:27.839 : en:Chapter 10
00:52:51.585 : en:Chapter 11
01:00:35.340 : en:Chapter 12
01:07:03.519 : en:Chapter 13
01:12:56.246 : en:Chapter 14
01:18:45.804 : en:Chapter 15
01:26:56.461 : en:Chapter 16
ЦитатаКто-то писал:
Автор релиза - GoldDust
 

Вложения

  • 112,8 KB Просмотры: 1
    Личеров 0
    Сидеров 0
    Файлов 1
    Объем 5,6 GB

Привет!

Мы группа людей которые решили помочь другим в решении их проблем, а так же пользователям с поиском самых свежих и качественных инфопродуктов. За 4 с небольшим месяца мы создали этот форум на который заходят ежедневно тысячи человек и посещаемость постоянно растёт. Мы создали панель лицензирования для защиты PHP скриптов от воровства и SEO панель для мониторинга наших сайтов и выбора верной стратегии их развития. Мы надеемся что то что мы создали пригодится Вам и возможно Вы поможете нам развиваться и совершенствоваться вместе с Вами.

Статистика форума

Темы
406.702
Сообщения
465.174
Пользователи
84.833
Новый пользователь
Nik423

Приложения форума для iOS и Android


У ркн там нет власти ;)
Приватные разговоры
Помощь Пользователи
    Вы не присоединились ни к одной комнате.