За последнюю неделю опубликовано 19 новых материалов.
Инструкция новичку Путеводитель по форуму Прокси для Telegram Показать подсказки , это бомба!

Скачать Однажды двадцать лет спустя (1980) WEB-DLRip от New Team бесплатно через торрент

  • Поучаствуй (в качестве покупателя) в любых пяти совместных покупках (кроме завершённых и "Моментальных") и получи группу "Новичок" навсегда -> ссылка на раздел
  • Получай до 480 рублей за каждого приглашенного пользователя!
    представляем Вам очередное расширение партнерской программы, подробности описаны тут -> ссылка
  • 90% материалов доступно к скачиванию после простой регистрации!
    Если же ты хочешь скачивать материалы без требования оставлять отзывы то получи группу "Новичок", 10 способов повышения описаны тут -> ссылка
  • К сожалению количество битых ссылок растет и мы уже не можем их оперативно восстанавливать поэтому просим помощи у каждого нашего пользователя.
    С сегодняшнего дня, за каждую восстановленную ссылку мы заплатим Вам.
    Подробнее тут -> ссылка
  • Перенесем твои заслуги с другого ресурса!
    Мы понимаем как сложно прокачивать аккаунты на форумах, вроде раскачал аккаунт, а тут появляется ресурс в 100 раз круче но тоже с системой прокачки и снова качать аккаунт...
    Предлагаем вам перенести Ваши заслуги на другом подобном ресурсе к нам.
    Подробности описаны тут -> ссылка
  • Вы можете получать по 2.5% с каждой покупки и продажи на маркете! Подробности в теме Партнёрская программа
Если Вы не хотите скачивать, Вы всегда можетепосмотретьонлайн, просто нажмите кнопку ниже :

Открыть плеер

Torrent_Bot

Торрент-Бот
Бот форума
4 Окт 2016
81
189
20
Страна: СССР
Жанр: мелодрама, комедия

Год выпуска: 1980

Продолжительность: 01:13:35


Перевод: Не требуется

Режиссер: Юрий Егоров

В ролях:

Наталья Гундарева(Надя Круглова), Виктор Проскурин(Кирилл Круглов, муж Нади), Евгений Лазарев(одноклассник Вишневский Юрий, кандидат психологических наук), Олег Ефремов(художник Илья Николаевич), Валентина Титова(одноклассница Леночка Амосова, астроном), Ольга Гобзева(одноклассница, поэтесса), Александр Потапов(одноклассник Валера), Игорь Ясулович(одноклассник Толя Клинков, капитан 2-го ранга), Валентин Смирнитский(одноклассник Коля), Инга Будкевич(директор магазина), Марина Яковлева(Наташа Круглова, старшая дочь), Сергей Белов(Круглов, сын)


Описание: Выпускники одной из московских школ через двадцать лет после окончания собираются вместе. Каждого просят ответить на два вопроса: «Что вы уже сделали?» и «Чего еще в жизни ждете?». Вместе с бывшими однокашниками пытается найти ответы на поставленные вопросы и главная героиня фильма - многодетная мать Надя Круглова.






Качество: WEB-DLRip
Контейнер: AVI
Видео: XviD, 704x304 (2.35:1), 2366 kbps, 25 fps, 0,442 bpp
Аудио: AC3 / 5.1 / 48 kHz / 448 kbps / 16 bit
Раздача от:


Скриншоты
Media Info
General
Complete name : F:OdnazhdI.20.let.spustia.WEBDLRip.by.NewTeam.avi
Format : AVI
Format/Info : Audio Video Interleave
File size : 1.45 GiB
Duration : 1h 13mn
Overall bit rate : 2 824 Kbps
Writing application : VirtualDubMod 1.5.10.3 | www.virtualdub-fr.org || (build 2550/release)
Writing library : VirtualDubMod build 2550/release

Video
ID : 0
Format : MPEG-4 Visual
Format profile : Advanced [email protected]
Format settings, BVOP : 1
Format settings, QPel : No
Format settings, GMC : No warppoints
Format settings, Matrix : Custom
Muxing mode : Packed bitstream
Codec ID : XVID
Codec ID/Hint : XviD
Duration : 1h 13mn
Bit rate : 2 367 Kbps
Width : 704 pixels
Height : 304 pixels
Display aspect ratio : 2.35:1
Frame rate : 25.000 fps
Color space : YUV
Chroma subsampling : 4:2:0
Bit depth : 8 bits
Scan type : Progressive
Compression mode : Lossy
Bits/(Pixel*Frame) : 0.442
Stream size : 1.22 GiB (84%)
Writing library : XviD 73

Audio
ID : 1
Format : AC-3
Format/Info : Audio Coding 3
Mode extension : CM (complete main)
Codec ID : 2000
Duration : 1h 13mn
Bit rate mode : Constant
Bit rate : 448 Kbps
Channel(s) : 6 channels
Channel positions : Front: L C R, Side: L R, LFE
Sampling rate : 48.0 KHz
Bit depth : 16 bits
Compression mode : Lossy
Stream size : 236 MiB (16%)
Alignment : Split accross interleaves
Interleave, duration : 40 ms (1.00 video frame)
Interleave, preload duration : 500 ms
 

Вложения

  • 15,6 KB Просмотры: 1
    Личеров 0
    Сидеров 0
    Файлов 1
    Объем 1,5 GB

Привет!

Мы группа людей которые решили помочь другим в решении их проблем, а так же пользователям с поиском самых свежих и качественных инфопродуктов. За 4 с небольшим месяца мы создали этот форум на который заходят ежедневно тысячи человек и посещаемость постоянно растёт. Мы создали панель лицензирования для защиты PHP скриптов от воровства и SEO панель для мониторинга наших сайтов и выбора верной стратегии их развития. Мы надеемся что то что мы создали пригодится Вам и возможно Вы поможете нам развиваться и совершенствоваться вместе с Вами.

Статистика форума

Темы
413.013
Сообщения
472.368
Пользователи
93.510
Новый пользователь
Маским12

Приложения форума для iOS и Android


У ркн там нет власти ;)
Приватные разговоры
Помощь Пользователи
    Вы не присоединились ни к одной комнате.