За последнюю неделю опубликовано 0 новых материалов.
Инструкция новичку Путеводитель по форуму Прокси для Telegram Показать подсказки , это бомба!

Скачать Однажды двадцать лет спустя (1980) WEB-DL 720p от New Team бесплатно через торрент

  • Поучаствуй (в качестве покупателя) в любых пяти совместных покупках (кроме завершённых и "Моментальных") и получи группу "Новичок" навсегда -> ссылка на раздел
  • Получай до 480 рублей за каждого приглашенного пользователя!
    представляем Вам очередное расширение партнерской программы, подробности описаны тут -> ссылка
  • 90% материалов доступно к скачиванию после простой регистрации!
    Если же ты хочешь скачивать материалы без требования оставлять отзывы то получи группу "Новичок", 10 способов повышения описаны тут -> ссылка
  • К сожалению количество битых ссылок растет и мы уже не можем их оперативно восстанавливать поэтому просим помощи у каждого нашего пользователя.
    С сегодняшнего дня, за каждую восстановленную ссылку мы заплатим Вам.
    Подробнее тут -> ссылка
  • Перенесем твои заслуги с другого ресурса!
    Мы понимаем как сложно прокачивать аккаунты на форумах, вроде раскачал аккаунт, а тут появляется ресурс в 100 раз круче но тоже с системой прокачки и снова качать аккаунт...
    Предлагаем вам перенести Ваши заслуги на другом подобном ресурсе к нам.
    Подробности описаны тут -> ссылка
  • Вы можете получать по 2.5% с каждой покупки и продажи на маркете! Подробности в теме Партнёрская программа
Если Вы не хотите скачивать, Вы всегда можетепосмотретьонлайн, просто нажмите кнопку ниже :

Открыть плеер

Torrent_Bot

Торрент-Бот
Бот форума
4 Окт 2016
79
196
20
Страна: СССР
Жанр: мелодрама, комедия

Год выпуска: 1980

Продолжительность: 01:13:35


Перевод: Не требуется

Режиссер: Юрий Егоров

В ролях:

Наталья Гундарева(Надя Круглова), Виктор Проскурин(Кирилл Круглов, муж Нади), Евгений Лазарев(одноклассник Вишневский Юрий, кандидат психологических наук), Олег Ефремов(художник Илья Николаевич), Валентина Титова(одноклассница Леночка Амосова, астроном), Ольга Гобзева(одноклассница, поэтесса), Александр Потапов(одноклассник Валера), Игорь Ясулович(одноклассник Толя Клинков, капитан 2-го ранга), Валентин Смирнитский(одноклассник Коля), Инга Будкевич(директор магазина), Марина Яковлева(Наташа Круглова, старшая дочь), Сергей Белов(Круглов, сын)


Описание: Выпускники одной из московских школ через двадцать лет после окончания собираются вместе. Каждого просят ответить на два вопроса: «Что вы уже сделали?» и «Чего еще в жизни ждете?». Вместе с бывшими однокашниками пытается найти ответы на поставленные вопросы и главная героиня фильма - многодетная мать Надя Круглова.






Качество: WEB-DL 720p
Контейнер: MKV
Видео: AVC, 960x550 (2.35:1), 3879 kbps, 25 fps, 0,294 bpp
Аудио: русский / AC3 / 5.1 / 48 kHz / 448 kbps / 16 bit
Навигация по главам: есть
Раздача от:


Скриншоты
Media Info
General
Unique ID : 175720049512035023734169694846014014209 (0x843273552D3D7B92BCEF24A46CF94301)
Complete name : F:OdnazhdI.20.let.spustia.WEBDL720p.by.NewTeam.mkv
Format : Matroska
Format version : Version 4 / Version 2
File size : 2.27 GiB
Duration : 1h 13mn
Overall bit rate : 4 415 Kbps
Movie name : by_New-Team.org
Encoded date : UTC 2016-03-08 07:37:46
Writing application : mkvmerge v8.6.1 ('Flying') 64bit
Writing library : libebml v1.3.3 + libmatroska v1.4.4
DURATION : 01:13:35.584000000
NUMBER_OF_FRAMES : 137987
NUMBER_OF_BYTES : 247272704
_STATISTICS_WRITING_APP : mkvmerge v8.6.1 ('Flying') 64bit
_STATISTICS_WRITING_DATE_UTC : 2016-03-08 07:37:46
_STATISTICS_TAGS : BPS DURATION NUMBER_OF_FRAMES NUMBER_OF_BYTES
Attachment : Yes

Video
ID : 1
Format : AVC
Format/Info : Advanced Video Codec
Format profile : [email protected]
Format settings, CABAC : No
Format settings, ReFrames : 2 frames
Codec ID : V_MPEG4/ISO/AVC
Duration : 1h 13mn
Bit rate : 3 879 Kbps
Width : 960 pixels
Height : 550 pixels
Display aspect ratio : 2.35:1
Frame rate : 25.000 fps
Color space : YUV
Chroma subsampling : 4:2:0
Bit depth : 8 bits
Scan type : Progressive
Bits/(Pixel*Frame) : 0.294
Stream size : 1.99 GiB (88%)
Language : Russian
Default : Yes
Forced : No
Color primaries : BT.709-5, BT.1361, IEC 61966-2-4, SMPTE RP177
Transfer characteristics : BT.709-5, BT.1361
Matrix coefficients : BT.709-5, BT.1361, IEC 61966-2-4 709, SMPTE RP177

Audio
ID : 2
Format : AC-3
Format/Info : Audio Coding 3
Mode extension : CM (complete main)
Codec ID : A_AC3
Duration : 1h 13mn
Bit rate mode : Constant
Bit rate : 448 Kbps
Channel(s) : 6 channels
Channel positions : Front: L C R, Side: L R, LFE
Sampling rate : 48.0 KHz
Bit depth : 16 bits
Compression mode : Lossy
Stream size : 236 MiB (10%)
Language : Russian
Default : Yes
Forced : Yes

Menu
00:00:00.000 : en:1
00:05:40.000 : en:2
00:10:27.000 : en:3
00:15:29.000 : en:4
00:24:28.000 : en:5
00:32:12.000 : en:6
00:39:24.000 : en:7
00:46:37.000 : en:8
00:53:30.000 : en:9
01:02:07.000 : en:10
01:09:13.000 : en:11
 

Вложения

  • 12,3 KB Просмотры: 1
    Личеров 0
    Сидеров 0
    Файлов 1
    Объем 2,3 GB

Привет!

Мы группа людей которые решили помочь другим в решении их проблем, а так же пользователям с поиском самых свежих и качественных инфопродуктов. За 4 с небольшим месяца мы создали этот форум на который заходят ежедневно тысячи человек и посещаемость постоянно растёт. Мы создали панель лицензирования для защиты PHP скриптов от воровства и SEO панель для мониторинга наших сайтов и выбора верной стратегии их развития. Мы надеемся что то что мы создали пригодится Вам и возможно Вы поможете нам развиваться и совершенствоваться вместе с Вами.

Статистика форума

Темы
414.370
Сообщения
475.396
Пользователи
96.561
Новый пользователь
starushka

Приложения форума для iOS и Android


У ркн там нет власти ;)
Приватные разговоры
Помощь Пользователи
    Вы не присоединились ни к одной комнате.