За последнюю неделю опубликовано 63 новых материалов.
Инструкция новичку Путеводитель по форуму Прокси для Telegram Показать подсказки , это бомба!

Скачать Одинокий парень / The Lonely Guy (1984) BDRip 1080p от ExKinoRay | P, A бесплатно через торрент

  • Поучаствуй (в качестве покупателя) в любых пяти совместных покупках (кроме завершённых и "Моментальных") и получи группу "Новичок" навсегда -> ссылка на раздел
  • Получай до 480 рублей за каждого приглашенного пользователя!
    представляем Вам очередное расширение партнерской программы, подробности описаны тут -> ссылка
  • 90% материалов доступно к скачиванию после простой регистрации!
    Если же ты хочешь скачивать материалы без требования оставлять отзывы то получи группу "Новичок", 10 способов повышения описаны тут -> ссылка
  • К сожалению количество битых ссылок растет и мы уже не можем их оперативно восстанавливать поэтому просим помощи у каждого нашего пользователя.
    С сегодняшнего дня, за каждую восстановленную ссылку мы заплатим Вам.
    Подробнее тут -> ссылка
  • Перенесем твои заслуги с другого ресурса!
    Мы понимаем как сложно прокачивать аккаунты на форумах, вроде раскачал аккаунт, а тут появляется ресурс в 100 раз круче но тоже с системой прокачки и снова качать аккаунт...
    Предлагаем вам перенести Ваши заслуги на другом подобном ресурсе к нам.
    Подробности описаны тут -> ссылка
  • Вы можете получать по 2.5% с каждой покупки и продажи на маркете! Подробности в теме Партнёрская программа
Если Вы не хотите скачивать, Вы всегда можетепосмотретьонлайн, просто нажмите кнопку ниже :

Открыть плеер

Torrent_Bot

Торрент-Бот
Бот форума
4 Окт 2016
92
160
20



Информация о фильме
Название: Одинокий парень
Оригинальное название: The Lonely Guy
Год выхода: 1984
Жанр: Комедия
Режиссер: Артур Хиллер
В ролях: Стив Мартин, Чарльз Гродин, Джудит Айви, Стив Лоуренс, Робин Дуглас, Мерв Гриффин, Джойс Бразерс, Канди Бро, Рэнди Бро, Джули Пэйн, Мэдисон Арнолд

О фильме:
Застав свою подружку в постели с другим, потрясенный до глубины души таким коварством Ларри Хаббарт, решает, что теперь его удел — одиночество. Время идет, и неожиданно, внимание застенчивого Ларри привлекает очаровательная Айрис. Он робко пытается ухаживать, но девушка не обращает на него никакого внимания. Глубоко переживая неудачу, Хаббарт начинает писать книгу, доверив бумаге все мысли, чувства и переживания одинокого, обманутого и неуверенного в себе парня. Неожиданно книга становится бестселлером, а Ларри — богатым и знаменитым. Теперь у него появляется шанс возобновить отношения с Айрис.




Страна: США
Студия: Universal Pictures, Aspen Film Society
Продолжительность: 01:30:27
Перевод: Профессиональный многоголосый, авторский одноголосый

Файл
Кодек: H.264
Качество: BDRip 1080p
Видео: MPEG-4 AVC, 13 Мбит/с, 1918х1042, 23.976 Кадр/с
Звук:
Aудио#1: Russian: 48 kHz, AC3, 2 (L,R) ch, ~192.00 kbps avg |Профессиональный многоголосый, СТС|
Aудио#2: Russian: 48 kHz, AC3, 2 (L,R) ch, ~192.00 kbps avg |Профессиональный многоголосый, ОРТ|
Aудио#3: Russian: 48 kHz, AC3, 2 (L,R) ch, ~192.00 kbps avg |Авторский одноголосый, А. Михалев|
Aудио#4: English: 48 kHz, FLAC, 2 (L,R) ch, ~693.00 kbps avg
Субтитры: English (Full-length)

Log/MediaInfo
x264 [info]: frame I:792 Avg QP:14.87 size:182863
x264 [info]: frame P:24862 Avg QP:15.87 size:109937
x264 [info]: frame B:104527 Avg QP:17.16 size: 56699

Формат : Matroska
Версия формата : Version 4
Размер файла : 9,00 Гбайт
Продолжительность : 1 ч. 30 м.
Режим общего битрейта : Переменный
Общий поток : 14,2 Мбит/сек
Название фильма : The.Lonely.Guy.1984.x264.BDRip.1080p.Rus.Eng.ExKinoRay
Дата кодирования : UTC 2020-08-10 13:01:28
Программа кодирования : mkvmerge v49.0.0 ('Sick Of Losing Soulmates') 64-bit
Библиотека кодирования : libebml v1.4.0 + libmatroska v1.6.1

Видео
Идентификатор : 1
Формат : AVC
Формат/Информация : Advanced Video Codec
Профиль формата : [email protected]
Настройки формата : CABAC / 4 Ref Frames
Параметр CABAC формата : Да
Параметр RefFrames формата : 4 кадра
Идентификатор кодека : V_MPEG4/ISO/AVC
Продолжительность : 1 ч. 30 м.
Битрейт : 13,0 Мбит/сек
Ширина : 1 918 пикселей
Высота : 1 042 пикселя
Соотношение сторон : 1,85:1
Режим частоты кадров : Постоянный
Частота кадров : 23,976 кадра/сек
Цветовое пространство : YUV
Субдискретизация насыщенности : 4:2:0
Битовая глубина : 8 бит
Тип развёртки : Прогрессивная
Бит/(Пиксели*Кадры) : 0.271
Размер потока : 8,20 Гбайт (91%)
Заголовок : The.Lonely.Guy.1984.x264.BDRip.1080p.Rus.Eng.ExKinoRay
Библиотека кодирования : x264 core 160 r3000 33f9e14
Настройки программы : cabac=1 / ref=4 / deblock=1:-3:-3 / analyse=0x3:0x113 / me=umh / subme=11 / psy=1 / psy_rd=1.05:0.00 / mixed_ref=1 / me_range=32 / chroma_me=1 / trellis=2 / 8x8dct=1 / cqm=0 / deadzone=21,11 / fast_pskip=0 / chroma_qp_offset=-2 / threads=18 / lookahead_threads=3 / sliced_threads=0 / nr=0 / decimate=0 / interlaced=0 / bluray_compat=0 / constrained_intra=0 / bframes=8 / b_pyramid=2 / b_adapt=2 / b_bias=0 / direct=3 / weightb=1 / open_gop=0 / weightp=2 / keyint=240 / keyint_min=23 / scenecut=40 / intra_refresh=0 / rc_lookahead=80 / rc=crf / mbtree=0 / crf=17.7 / qcomp=0.60 / qpmin=0 / qpmax=69 / qpstep=4 / vbv_maxrate=62500 / vbv_bufsize=78125 / crf_max=0.0 / nal_hrd=none / filler=0 / ip_ratio=1.30 / pb_ratio=1.20 / aq=3:0.80 / zones=93217,99514,q=12/100019,100201,q=11/125470,130180,q=22
Язык : English
Default : Да
Forced : Нет

Аудио #1
Идентификатор : 2
Формат : AC-3
Формат/Информация : Audio Coding 3
Коммерческое название : Dolby Digital
Идентификатор кодека : A_AC3
Продолжительность : 1 ч. 30 м.
Вид битрейта : Постоянный
Битрейт : 192 Кбит/сек
Каналы : 2 канала
Channel layout : L R
Частота : 48,0 КГц
Частота кадров : 31,250 кадров/сек (1536 SPF)
Метод сжатия : С потерями
Размер потока : 124 Мбайт (1%)
Заголовок : Профессиональный многоголосый (CTC)
Язык : Russian
Service kind : Complete Main
Default : Да
Forced : Нет

Аудио #2
Идентификатор : 3
Формат : AC-3
Формат/Информация : Audio Coding 3
Коммерческое название : Dolby Digital
Идентификатор кодека : A_AC3
Продолжительность : 1 ч. 30 м.
Вид битрейта : Постоянный
Битрейт : 192 Кбит/сек
Каналы : 2 канала
Channel layout : L R
Частота : 48,0 КГц
Частота кадров : 31,250 кадров/сек (1536 SPF)
Метод сжатия : С потерями
Размер потока : 124 Мбайт (1%)
Заголовок : Профессиональный многоголосый (OPT)
Язык : Russian
Service kind : Complete Main
Default : Нет
Forced : Нет

Аудио #3
Идентификатор : 4
Формат : AC-3
Формат/Информация : Audio Coding 3
Коммерческое название : Dolby Digital
Идентификатор кодека : A_AC3
Продолжительность : 1 ч. 30 м.
Вид битрейта : Постоянный
Битрейт : 192 Кбит/сек
Каналы : 2 канала
Channel layout : L R
Частота : 48,0 КГц
Частота кадров : 31,250 кадров/сек (1536 SPF)
Метод сжатия : С потерями
Размер потока : 124 Мбайт (1%)
Заголовок : Aвторский одноголосый (А.Михалёв)
Язык : Russian
Service kind : Complete Main
Default : Нет
Forced : Нет

Аудио #4
Идентификатор : 5
Формат : FLAC
Формат/Информация : Free Lossless Audio Codec
Идентификатор кодека : A_FLAC
Продолжительность : 1 ч. 30 м.
Вид битрейта : Переменный
Битрейт : 693 Кбит/сек
Каналы : 2 канала
Channel layout : L R
Частота : 48,0 КГц
Частота кадров : 11,719 кадров/сек (4096 SPF)
Битовая глубина : 24 бит
Метод сжатия : Без потерь
Размер потока : 449 Мбайт (5%)
Заголовок : FLAC Audio 2 ch 693 Kbps
Библиотека кодирования : libFLAC 1.2.1 (UTC 2007-09-17)
Язык : English
Default : Нет
Forced : Нет

Текст
Идентификатор : 6
Формат : UTF-8
Идентификатор кодека : S_TEXT/UTF8
Идентификатор кодека/Информация : UTF-8 Plain Text
Продолжительность : 1 ч. 24 м.
Битрейт : 76 бит/сек
Count of elements : 1418
Размер потока : 47,2 Кбайт (0%)
Заголовок : Full-length
Язык : English
Default : Нет
Forced : Нет

Меню
00:00:00.000 : :Chapter 01
00:10:00.600 : :Chapter 02
00:20:01.200 : :Chapter 03
00:29:59.798 : :Chapter 04
00:40:00.398 : :Chapter 05
00:49:58.996 : :Chapter 06
01:00:03.600 : :Chapter 07
01:09:54.190 : :Chapter 08
01:19:58.293 : :Chapter 09
01:29:57.392 : :Chapter 10
Скриншоты

Notes
Fixed OCR subs.
Used zones on dark scenes with banding.

Релиз от:
 

Вложения

  • 23,4 KB Просмотры: 0
    Личеров 0
    Сидеров 0
    Файлов 1
    Объем 9 GB

Привет!

Мы группа людей которые решили помочь другим в решении их проблем, а так же пользователям с поиском самых свежих и качественных инфопродуктов. За 4 с небольшим месяца мы создали этот форум на который заходят ежедневно тысячи человек и посещаемость постоянно растёт. Мы создали панель лицензирования для защиты PHP скриптов от воровства и SEO панель для мониторинга наших сайтов и выбора верной стратегии их развития. Мы надеемся что то что мы создали пригодится Вам и возможно Вы поможете нам развиваться и совершенствоваться вместе с Вами.

Статистика форума

Темы
406.656
Сообщения
465.106
Пользователи
84.674
Новый пользователь
Юрий 1990

Приложения форума для iOS и Android


У ркн там нет власти ;)
Приватные разговоры
Помощь Пользователи
    Вы не присоединились ни к одной комнате.