За последнюю неделю опубликовано 44 новых материалов.
Инструкция новичку Путеводитель по форуму Прокси для Telegram Показать подсказки , это бомба!

Скачать Один дома 4 / Home alone 4 (2002) WEB-DL 1080p | P бесплатно через торрент

  • Поучаствуй (в качестве покупателя) в любых пяти совместных покупках (кроме завершённых и "Моментальных") и получи группу "Новичок" навсегда -> ссылка на раздел
  • Получай до 480 рублей за каждого приглашенного пользователя!
    представляем Вам очередное расширение партнерской программы, подробности описаны тут -> ссылка
  • 90% материалов доступно к скачиванию после простой регистрации!
    Если же ты хочешь скачивать материалы без требования оставлять отзывы то получи группу "Новичок", 10 способов повышения описаны тут -> ссылка
  • К сожалению количество битых ссылок растет и мы уже не можем их оперативно восстанавливать поэтому просим помощи у каждого нашего пользователя.
    С сегодняшнего дня, за каждую восстановленную ссылку мы заплатим Вам.
    Подробнее тут -> ссылка
  • Перенесем твои заслуги с другого ресурса!
    Мы понимаем как сложно прокачивать аккаунты на форумах, вроде раскачал аккаунт, а тут появляется ресурс в 100 раз круче но тоже с системой прокачки и снова качать аккаунт...
    Предлагаем вам перенести Ваши заслуги на другом подобном ресурсе к нам.
    Подробности описаны тут -> ссылка
  • Вы можете получать по 2.5% с каждой покупки и продажи на маркете! Подробности в теме Партнёрская программа
Если Вы не хотите скачивать, Вы всегда можетепосмотретьонлайн, просто нажмите кнопку ниже :

Открыть плеер

Torrent_Bot

Торрент-Бот
Бот форума
4 Окт 2016
90
168
20



Информация о фильме
Название: Один дома 4
Оригинальное название: Home Alone 4: Taking Back the House
Год выхода: 2002
Жанр: Комедия, семейный, рождество
Режиссер: Род Дэниел
В ролях: Майк Уинберг, Френч Стюарт, Клер Кэри, Джейсон Бег, Джоанна Гоуинг, Мисси Пайл, Гидеон Джейкобс, Челси Руссо, Шон Майклс

О фильме:
Мечта любого маленького хулигана - это когда нет родителей дома и в твоем распоряжении целый дом! Для Кевина МакКалистера, нашего старого знакомого, эти мечты сбываются. На этот раз он готовится встретить Рождество, ожидая родителей и гостей, в огромном супердоме, напичканном самыми невероятными техническими устройствами. И поверьте, праздник будет потрясающим! Особенно для горе-бандитов, задумавших проникнуть в дом. Ведь они еще не знают, с кем им придется иметь дело...



Страна: США
Студия: 20th Century Fox Television
Продолжительность: 01:23:58
Перевод: Профессиональный многоголосый | MVO R5

Файл
Кодек: AVC
Качество: WEB-DL 1080p | Home.Alone.4.Taking.Back.The.House.2002.1080p.WEB-DL.DD5.1.H264-FGT
Видео: MPEG-4 AVC, 5221 Kбит/с, 1920x1080, 23.976 кадр/с
Аудио #1: Русский (АС3, 6ch, 448 Кбит/с, 48.0 KHz) Профессиональный (многоголосый, закадровый) R5
Аудио #2: Английский (АС3, 6ch, 448 Кбит/с, 48.0 KHz)
Субтитры: Русские, английские (*srt)
Трейлер
MediaInfo
Источник: Home.Alone.4.Taking.Back.The.House.2002.1080p.WEB-DL.DD5.1.H264-FGT
General
Unique ID : 229106358388694219158728517821380772345 (0xAC5C479453899323A3303BCB9C8941F9)
Complete name : Home.Alone.4.2002.WEB-DL.1080p.mkv
Format : Matroska
Format version : Version 4
File size : 3.59 GiB
Duration : 1 h 23 min
Overall bit rate : 6 118 kb/s
Encoded date : UTC 2019-06-02 11:27:10
Writing application : mkvmerge v7.1.0 ('Good Love') 64bit built on Jul 27 2014 13:06:55
Writing library : libebml v1.3.0 + libmatroska v1.4.1

Video
ID : 1
Format : AVC
Format/Info : Advanced Video Codec
Format profile : [email protected]
Format settings : CABAC / 4 Ref Frames
Format settings, CABAC : Yes
Format settings, ReFrames : 4 frames
Codec ID : V_MPEG4/ISO/AVC
Duration : 1 h 23 min
Bit rate : 5 221 kb/s
Width : 1 920 pixels
Height : 1 080 pixels
Display aspect ratio : 16:9
Frame rate mode : Constant
Frame rate : 23.976 (24000/1001) FPS
Color space : YUV
Chroma subsampling : 4:2:0
Bit depth : 8 bits
Scan type : Progressive
Bits/(Pixel*Frame) : 0.105
Stream size : 3.06 GiB (85%)
Language : English
Default : Yes
Forced : No
Color range : Limited
Color primaries : BT.709
Transfer characteristics : BT.709
Matrix coefficients : BT.709

Audio #1
ID : 2
Format : AC-3
Format/Info : Audio Coding 3
Commercial name : Dolby Digital
Codec ID : A_AC3
Duration : 1 h 23 min
Bit rate mode : Constant
Bit rate : 448 kb/s
Channel(s) : 6 channels
Channel layout : L R C LFE Ls Rs
Sampling rate : 48.0 kHz
Frame rate : 31.250 FPS (1536 SPF)
Bit depth : 16 bits
Compression mode : Lossy
Stream size : 269 MiB (7%)
Title : MVO | R5
Language : Russian
Service kind : Complete Main
Default : Yes
Forced : No

Audio #2
ID : 3
Format : AC-3
Format/Info : Audio Coding 3
Commercial name : Dolby Digital
Codec ID : A_AC3
Duration : 1 h 23 min
Bit rate mode : Constant
Bit rate : 448 kb/s
Channel(s) : 6 channels
Channel layout : L R C LFE Ls Rs
Sampling rate : 48.0 kHz
Frame rate : 31.250 FPS (1536 SPF)
Bit depth : 16 bits
Compression mode : Lossy
Stream size : 269 MiB (7%)
Language : English
Service kind : Complete Main
Default : No
Forced : No

Text #1
ID : 4
Format : UTF-8
Codec ID : S_TEXT/UTF8
Codec ID/Info : UTF-8 Plain Text
Duration : 1 h 22 min
Bit rate : 103 b/s
Count of elements : 1001
Stream size : 62.8 KiB (0%)
Language : Russian
Default : No
Forced : No

Text #2
ID : 5
Format : UTF-8
Codec ID : S_TEXT/UTF8
Codec ID/Info : UTF-8 Plain Text
Duration : 1 h 22 min
Bit rate : 72 b/s
Count of elements : 1192
Stream size : 44.1 KiB (0%)
Language : English
Default : No
Forced : No

Text #3
ID : 6
Format : UTF-8
Codec ID : S_TEXT/UTF8
Codec ID/Info : UTF-8 Plain Text
Duration : 1 h 23 min
Bit rate : 94 b/s
Count of elements : 1242
Stream size : 58.0 KiB (0%)
Title : SDH
Language : English
Default : No
Forced : No

Menu
00:00:00.000 : en:Chapter 01
00:06:53.121 : en:Chapter 02
00:15:45.945 : en:Chapter 03
00:22:09.244 : en:Chapter 04
00:28:24.619 : en:Chapter 05
00:36:17.216 : en:Chapter 06
00:43:14.800 : en:Chapter 07
00:50:37.701 : en:Chapter 08
00:58:56.658 : en:Chapter 09
01:05:19.498 : en:Chapter 10
01:13:35.327 : en:Chapter 11
01:20:26.780 : en:Chapter 12
Скриншоты
 

Вложения

  • 18,8 KB Просмотры: 1
    Личеров 0
    Сидеров 0
    Файлов 1
    Объем 3,6 GB

Привет!

Мы группа людей которые решили помочь другим в решении их проблем, а так же пользователям с поиском самых свежих и качественных инфопродуктов. За 4 с небольшим месяца мы создали этот форум на который заходят ежедневно тысячи человек и посещаемость постоянно растёт. Мы создали панель лицензирования для защиты PHP скриптов от воровства и SEO панель для мониторинга наших сайтов и выбора верной стратегии их развития. Мы надеемся что то что мы создали пригодится Вам и возможно Вы поможете нам развиваться и совершенствоваться вместе с Вами.

Статистика форума

Темы
410.923
Сообщения
469.337
Пользователи
88.224
Новый пользователь
serg202121

Приложения форума для iOS и Android


У ркн там нет власти ;)
Приватные разговоры
Помощь Пользователи
    Вы не присоединились ни к одной комнате.