За последнюю неделю опубликовано 25 новых материалов.
Инструкция новичку Путеводитель по форуму Прокси для Telegram Показать подсказки , это бомба!

Скачать Одержимость Эммы Эванс / La posesion de Emma Evans (2010) BDRip 1080p | L1 бесплатно через торрент

  • Поучаствуй (в качестве покупателя) в любых пяти совместных покупках (кроме завершённых и "Моментальных") и получи группу "Новичок" навсегда -> ссылка на раздел
  • Получай до 480 рублей за каждого приглашенного пользователя!
    представляем Вам очередное расширение партнерской программы, подробности описаны тут -> ссылка
  • 90% материалов доступно к скачиванию после простой регистрации!
    Если же ты хочешь скачивать материалы без требования оставлять отзывы то получи группу "Новичок", 10 способов повышения описаны тут -> ссылка
  • К сожалению количество битых ссылок растет и мы уже не можем их оперативно восстанавливать поэтому просим помощи у каждого нашего пользователя.
    С сегодняшнего дня, за каждую восстановленную ссылку мы заплатим Вам.
    Подробнее тут -> ссылка
  • Перенесем твои заслуги с другого ресурса!
    Мы понимаем как сложно прокачивать аккаунты на форумах, вроде раскачал аккаунт, а тут появляется ресурс в 100 раз круче но тоже с системой прокачки и снова качать аккаунт...
    Предлагаем вам перенести Ваши заслуги на другом подобном ресурсе к нам.
    Подробности описаны тут -> ссылка
  • Вы можете получать по 2.5% с каждой покупки и продажи на маркете! Подробности в теме Партнёрская программа
Если Вы не хотите скачивать, Вы всегда можетепосмотретьонлайн, просто нажмите кнопку ниже :

Открыть плеер

Torrent_Bot

Торрент-Бот
Бот форума
4 Окт 2016
93
156
20
Информация о фильме
Название: Одержимость Эммы Эванс
Оригинальное название: La posesion de Emma Evans
Год выхода: 2010
Жанр: Ужасы, триллер, драма
Режиссер: Мануэль Карбальо
В ролях: Даг Брэдли, Софи Вавасо, Стивен Биллингтон, Томми Бастоу, Ричард Феликс, Джо-Энн Стокхэм, Брендан Прайс, Клаудия Костас

О фильме:
Эмма Эванс, трудный подросток воспитывающаяся в приличной семье, где соблюдают строгие правила и распорядок жизни. Однажды на свой день рождения она с друзьями решила вызвать духов с помощью спиритической доски и ей очень хотелось узнать, что из себя представляют духи. Только позже в девушку вселился не дух а демон и Эмма стала странно себя вести. Сама того не зная она стала причинять Зло окружающим её людям в то время когда Дьявол вселялся в неё. Не получив внятных результатов обследования в клинике семья решила позвать на помощь брата её отца священника Кристофера, который практикует экзорцизм и у которого во время последнего неудачного сеанса умерла девушка. После нескольких сеансов по изгнанию Дьявола из Эммы он понимает, что не сможет справится в одиночку со Злом...



Страна: Испания
Студия: Filmax
Продолжительность: 01:40:57
Перевод: Любительский одноголосый | Voiz - по переводу Диман_MF

Файл
Кодек: x.264
Качество: BDRip 1080p | Exorcismus.2010.1080p.BluRay.x264-aAF
Видео: MPEG-4 AVC, 1920x816, 9344 Кбит/с, 23.976 кадр/с
Звук:
Аудио #1: Русский ( АС3, 6ch, 384 Кбит/с, 48.0 KHz) Любительский (одноголосый, закадровый) Voiz
Аудио #2: Английский ( АС3, 6ch, 384 Кбит/с, 48.0 KHz)
Субтитры: русские, английские
MediaInfo
Источник: Exorcismus.2010.1080p.BluRay.x264-aAF
General
Unique ID : 180437578075912743824559385673132276070 (0x87BF0372D4624299B973CC7647BDF966)
Complete name : Exorcismus.2010.BDRip.1080p.mkv
Format : Matroska
Format version : Version 4 / Version 2
File size : 7.13 GiB
Duration : 1 h 40 min
Overall bit rate : 10.1 Mb/s
Encoded date : UTC 2018-08-30 11:20:32
Writing application : mkvmerge v7.1.0 ('Good Love') 64bit built on Jul 27 2014 13:06:55
Writing library : libebml v1.3.0 + libmatroska v1.4.1

Video
ID : 1
Format : AVC
Format/Info : Advanced Video Codec
Format profile : [email protected]
Format settings : CABAC / 5 Ref Frames
Format settings, CABAC : Yes
Format settings, ReFrames : 5 frames
Codec ID : V_MPEG4/ISO/AVC
Duration : 1 h 40 min
Bit rate : 9 344 kb/s
Width : 1 920 pixels
Height : 816 pixels
Display aspect ratio : 2.35:1
Frame rate mode : Constant
Frame rate : 23.976 (24000/1001) FPS
Color space : YUV
Chroma subsampling : 4:2:0
Bit depth : 8 bits
Scan type : Progressive
Bits/(Pixel*Frame) : 0.249
Stream size : 6.59 GiB (92%)
Writing library : x264 core 116 r2074 2641b9e
Encoding settings : cabac=1 / ref=5 / deblock=1:0:0 / analyse=0x3:0x133 / me=umh / subme=8 / psy=1 / psy_rd=1.00:0.00 / mixed_ref=1 / me_range=16 / chroma_me=1 / trellis=1 / 8x8dct=1 / cqm=0 / deadzone=21,11 / fast_pskip=0 / chroma_qp_offset=-2 / threads=12 / sliced_threads=0 / nr=0 / decimate=1 / interlaced=0 / bluray_compat=0 / constrained_intra=0 / bframes=3 / b_pyramid=2 / b_adapt=1 / b_bias=0 / direct=1 / weightb=1 / open_gop=0 / weightp=2 / keyint=240 / keyint_min=25 / scenecut=40 / intra_refresh=0 / rc_lookahead=40 / rc=2pass / mbtree=1 / bitrate=9344 / ratetol=1.0 / qcomp=0.60 / qpmin=0 / qpmax=69 / qpstep=4 / cplxblur=20.0 / qblur=0.5 / ip_ratio=1.40 / aq=1:1.00
Language : English
Default : Yes
Forced : No

Audio #1
ID : 2
Format : AC-3
Format/Info : Audio Coding 3
Commercial name : Dolby Digital
Codec ID : A_AC3
Duration : 1 h 39 min
Bit rate mode : Constant
Bit rate : 384 kb/s
Channel(s) : 6 channels
Channel layout : L R C LFE Ls Rs
Sampling rate : 48.0 kHz
Frame rate : 31.250 FPS (1536 SPF)
Bit depth : 16 bits
Compression mode : Lossy
Stream size : 273 MiB (4%)
Language : Russian
Service kind : Complete Main
Default : Yes
Forced : No

Audio #2
ID : 3
Format : AC-3
Format/Info : Audio Coding 3
Commercial name : Dolby Digital
Codec ID : A_AC3
Duration : 1 h 40 min
Bit rate mode : Constant
Bit rate : 384 kb/s
Channel(s) : 6 channels
Channel layout : L R C LFE Ls Rs
Sampling rate : 48.0 kHz
Frame rate : 31.250 FPS (1536 SPF)
Bit depth : 16 bits
Compression mode : Lossy
Stream size : 277 MiB (4%)
Language : English
Service kind : Complete Main
Default : No
Forced : No

Text #1
ID : 4
Format : UTF-8
Codec ID : S_TEXT/UTF8
Codec ID/Info : UTF-8 Plain Text
Duration : 1 h 37 min
Bit rate : 70 b/s
Count of elements : 1002
Stream size : 50.3 KiB (0%)
Language : Russian
Default : No
Forced : No

Text #2
ID : 5
Format : UTF-8
Codec ID : S_TEXT/UTF8
Codec ID/Info : UTF-8 Plain Text
Duration : 1 h 35 min
Bit rate : 47 b/s
Count of elements : 1292
Stream size : 32.8 KiB (0%)
Language : English
Default : No
Forced : No

Menu
00:00:00.000 : en:00:00:00.000
00:09:36.440 : en:00:09:36.440
00:18:56.320 : en:00:18:56.320
00:34:55.320 : en:00:34:55.320
00:43:28.720 : en:00:43:28.720
00:50:04.000 : en:00:50:04.000
01:01:45.400 : en:01:01:45.400
01:11:28.040 : en:01:11:28.040
01:20:07.400 : en:01:20:07.400
01:30:41.720 : en:01:30:41.720
01:38:30.040 : en:01:38:30.040
Скриншоты
 

Вложения

  • 18,7 KB Просмотры: 1
    Личеров 0
    Сидеров 0
    Файлов 1
    Объем 7,1 GB

Привет!

Мы группа людей которые решили помочь другим в решении их проблем, а так же пользователям с поиском самых свежих и качественных инфопродуктов. За 4 с небольшим месяца мы создали этот форум на который заходят ежедневно тысячи человек и посещаемость постоянно растёт. Мы создали панель лицензирования для защиты PHP скриптов от воровства и SEO панель для мониторинга наших сайтов и выбора верной стратегии их развития. Мы надеемся что то что мы создали пригодится Вам и возможно Вы поможете нам развиваться и совершенствоваться вместе с Вами.

Статистика форума

Темы
406.554
Сообщения
464.749
Пользователи
83.511
Новый пользователь
Book

Приложения форума для iOS и Android


У ркн там нет власти ;)
Приватные разговоры
Помощь Пользователи
    Вы не присоединились ни к одной комнате.