За последнюю неделю опубликовано 59 новых материалов.
Инструкция новичку Путеводитель по форуму Прокси для Telegram Показать подсказки , это бомба!

Скачать Обратная тяга / Backdraft (1991) UHD BDRip 1080p | P бесплатно через торрент

  • Поучаствуй (в качестве покупателя) в любых пяти совместных покупках (кроме завершённых и "Моментальных") и получи группу "Новичок" навсегда -> ссылка на раздел
  • Получай до 480 рублей за каждого приглашенного пользователя!
    представляем Вам очередное расширение партнерской программы, подробности описаны тут -> ссылка
  • 90% материалов доступно к скачиванию после простой регистрации!
    Если же ты хочешь скачивать материалы без требования оставлять отзывы то получи группу "Новичок", 10 способов повышения описаны тут -> ссылка
  • К сожалению количество битых ссылок растет и мы уже не можем их оперативно восстанавливать поэтому просим помощи у каждого нашего пользователя.
    С сегодняшнего дня, за каждую восстановленную ссылку мы заплатим Вам.
    Подробнее тут -> ссылка
  • Перенесем твои заслуги с другого ресурса!
    Мы понимаем как сложно прокачивать аккаунты на форумах, вроде раскачал аккаунт, а тут появляется ресурс в 100 раз круче но тоже с системой прокачки и снова качать аккаунт...
    Предлагаем вам перенести Ваши заслуги на другом подобном ресурсе к нам.
    Подробности описаны тут -> ссылка
  • Вы можете получать по 2.5% с каждой покупки и продажи на маркете! Подробности в теме Партнёрская программа
Если Вы не хотите скачивать, Вы всегда можетепосмотретьонлайн, просто нажмите кнопку ниже :

Открыть плеер

Torrent_Bot

Торрент-Бот
Бот форума
4 Окт 2016
82
186
20



Информация о фильме
Название: Обратная тяга
Оригинальное название: Backdraft
Год выхода: 1991
Жанр: боевик, триллер, драма, криминал, детектив
Режиссер: Рон Ховард
В ролях: Курт Рассел, Уильям Болдуин, Роберт Де Ниро, Дональд Сазерленд, Дженнифер Джейсон Ли, Скотт Гленн, Ребекка Де Морнэй, Джейсон Гедрик, Дж.Т. Уолш, Энтони Мокус ст.

О фильме:
«Обратная тяга» — это термин профессиональных пожарных. В результате «обратной тяги» погибает отец Брайана и Стивена. В отличие от Стивена, Брайан отказывается от карьеры пожарного, но судьба распоряжается так, что братья оказываются в одном отряде. Отношения между ними натянуты. Вскоре младший покидает команду, чтобы вместе со следователем поймать поджигателя-маньяка…




Страна: США
Продолжительность: 02:17:11
Перевод: Профессиональный многоголосый (R5 Супербит)
Субтитры: Русские полные, английские полные

Файл
Качество: UHD BDRip 1080p
Формат: Matroska
Видео: MPEG-4 AVC, 1920х816, 15.0 Mbps, 23.976 fps
Аудио #1: AC3, 6 ch, 384 kbps | Russian | MVO
Аудио #2: AC3, 6 ch, 640 kbps | English | Оригинал
Формат субтитров: softsub (SRT)

Семпл

Скриншоты
MediaInfo, x264 log
General
Unique ID : 131676493937607125014222024825362493694 (0x630FF8634360E59237CADFEB01A4B0FE)
Complete name : Backdraft (1991) UHD BDRip 1080p.mkv
Format : Matroska
Format version : Version 4
File size : 15.3 GiB
Duration : 2 h 17 min
Overall bit rate : 16.0 Mb/s
Movie name : Backdraft (1991)
Encoded date : UTC 2019-06-08 20:40:59
Writing application : mkvmerge v34.0.0 ('Sight and Seen') 64-bit
Writing library : libebml v1.3.7 + libmatroska v1.5.0
Attachments : poster.jpg

Video
ID : 1
Format : AVC
Format/Info : Advanced Video Codec
Format profile : [email protected]
Format settings : CABAC / 5 Ref Frames
Format settings, CABAC : Yes
Format settings, Reference : 5 frames
Codec ID : V_MPEG4/ISO/AVC
Duration : 2 h 17 min
Bit rate : 15.0 Mb/s
Width : 1 920 pixels
Height : 816 pixels
Display aspect ratio : 2.35:1
Frame rate mode : Constant
Frame rate : 23.976 (24000/1001) FPS
Color space : YUV
Chroma subsampling : 4:2:0
Bit depth : 8 bits
Scan type : Progressive
Bits/(Pixel*Frame) : 0.399
Stream size : 14.4 GiB (94%)
Writing library : x264 core 157 r2935+3 b68b5bf
Encoding settings : cabac=1 / ref=5 / deblock=1:-3:-3 / analyse=0x3:0x133 / me=umh / subme=11 / psy=1 / psy_rd=1.00:0.00 / mixed_ref=1 / me_range=32 / chroma_me=1 / trellis=2 / 8x8dct=1 / cqm=0 / deadzone=21,11 / fast_pskip=0 / chroma_qp_offset=-2 / threads=18 / lookahead_threads=3 / sliced_threads=0 / nr=0 / decimate=0 / interlaced=0 / bluray_compat=0 / constrained_intra=0 / bframes=9 / b_pyramid=2 / b_adapt=2 / b_bias=0 / direct=3 / weightb=1 / open_gop=0 / weightp=2 / keyint=240 / keyint_min=23 / scenecut=40 / intra_refresh=0 / rc_lookahead=60 / rc=2pass / mbtree=0 / bitrate=15000 / ratetol=1.0 / qcomp=0.60 / qpmin=0 / qpmax=69 / qpstep=4 / cplxblur=20.0 / qblur=0.5 / vbv_maxrate=50000 / vbv_bufsize=62500 / nal_hrd=none / filler=0 / ip_ratio=1.40 / pb_ratio=1.30 / aq=3:0.80
Language : English
Default : Yes
Forced : No
Color range : Limited
Color primaries : BT.709
Transfer characteristics : BT.709
Matrix coefficients : BT.709

Audio #1
ID : 2
Format : AC-3
Format/Info : Audio Coding 3
Commercial name : Dolby Digital
Codec ID : A_AC3
Duration : 2 h 17 min
Bit rate mode : Constant
Bit rate : 384 kb/s
Channel(s) : 6 channels
Channel layout : L R C LFE Ls Rs
Sampling rate : 48.0 kHz
Frame rate : 31.250 FPS (1536 SPF)
Bit depth : 16 bits
Compression mode : Lossy
Stream size : 377 MiB (2%)
Title : MVO
Language : Russian
Service kind : Complete Main
Default : Yes
Forced : No

Audio #2
ID : 3
Format : AC-3
Format/Info : Audio Coding 3
Commercial name : Dolby Digital
Codec ID : A_AC3
Duration : 2 h 17 min
Bit rate mode : Constant
Bit rate : 640 kb/s
Channel(s) : 6 channels
Channel layout : L R C LFE Ls Rs
Sampling rate : 48.0 kHz
Frame rate : 31.250 FPS (1536 SPF)
Bit depth : 16 bits
Compression mode : Lossy
Stream size : 628 MiB (4%)
Title : Original
Language : English
Service kind : Complete Main
Default : No
Forced : No

Text #1
ID : 4
Format : UTF-8
Codec ID : S_TEXT/UTF8
Codec ID/Info : UTF-8 Plain Text
Duration : 2 h 9 min
Bit rate : 71 b/s
Count of elements : 1366
Stream size : 68.2 KiB (0%)
Title : Full
Language : Russian
Default : No
Forced : No

Text #2
ID : 5
Format : UTF-8
Codec ID : S_TEXT/UTF8
Codec ID/Info : UTF-8 Plain Text
Duration : 2 h 8 min
Bit rate : 45 b/s
Count of elements : 1271
Stream size : 42.6 KiB (0%)
Title : Full
Language : English
Default : No
Forced : No

Menu
00:00:00.000 : en:Chapter 1
00:05:49.682 : en:Chapter 2
00:15:45.819 : en:Chapter 3
00:18:24.978 : en:Chapter 4
00:39:05.259 : en:Chapter 5
00:48:02.880 : en:Chapter 6
00:51:56.279 : en:Chapter 7
00:59:25.728 : en:Chapter 8
01:03:27.011 : en:Chapter 9
01:14:42.394 : en:Chapter 10
01:24:17.552 : en:Chapter 11
01:38:27.818 : en:Chapter 12
01:42:02.324 : en:Chapter 13
01:51:50.537 : en:Chapter 14
02:03:18.724 : en:Chapter 15
02:07:10.247 : en:Chapter 16



x264 [info]: frame I:1086 Avg QP:17.13 size:212974
x264 [info]: frame P:46097 Avg QP:19.34 size:129151
x264 [info]: frame B:150179 Avg QP:21.27 size: 61513
x264 [info]: consecutive B-frames: 3.2% 3.8% 8.2% 19.0% 23.8% 31.1% 7.0% 0.7% 1.5% 1.7%
x264 [info]: mb I I16..4: 3.2% 91.5% 5.3%
x264 [info]: mb P I16..4: 0.2% 28.4% 0.6% P16..4: 21.1% 31.3% 14.8% 1.6% 0.1% skip: 1.9%
x264 [info]: mb B I16..4: 0.0% 2.1% 0.1% B16..8: 47.5% 23.7% 6.5% direct: 8.2% skip:11.7% L0:48.2% L1:43.6% BI: 8.1%
x264 [info]: 8x8 transform intra:96.4% inter:60.9%
x264 [info]: direct mvs spatial:99.0% temporal:1.0%
x264 [info]: coded y,uvDC,uvAC intra: 98.7% 73.3% 37.9% inter: 63.1% 28.1% 5.4%
x264 [info]: i16 v,h,dc,p: 29% 10% 6% 56%
x264 [info]: i8 v,h,dc,ddl,ddr,vr,hd,vl,hu: 6% 5% 9% 11% 16% 14% 14% 12% 12%
x264 [info]: i4 v,h,dc,ddl,ddr,vr,hd,vl,hu: 7% 5% 4% 9% 19% 17% 16% 11% 11%
x264 [info]: i8c dc,h,v,p: 33% 29% 20% 18%
x264 [info]: Weighted P-Frames: Y:3.9% UV:2.5%
x264 [info]: ref P L0: 44.8% 12.0% 22.3% 11.0% 9.1% 0.8% 0.0%
x264 [info]: ref B L0: 72.7% 18.3% 7.3% 1.7%
x264 [info]: ref B L1: 93.5% 6.5%
x264 [info]: kb/s:14988.71
Сравнение
HDDVDRip 1080p vs UHD BDRip 1080p











Backdraft : Screenshot Comparison
 

Вложения

  • 39,2 KB Просмотры: 1
    Личеров 0
    Сидеров 0
    Файлов 1
    Объем 15,3 GB

Привет!

Мы группа людей которые решили помочь другим в решении их проблем, а так же пользователям с поиском самых свежих и качественных инфопродуктов. За 4 с небольшим месяца мы создали этот форум на который заходят ежедневно тысячи человек и посещаемость постоянно растёт. Мы создали панель лицензирования для защиты PHP скриптов от воровства и SEO панель для мониторинга наших сайтов и выбора верной стратегии их развития. Мы надеемся что то что мы создали пригодится Вам и возможно Вы поможете нам развиваться и совершенствоваться вместе с Вами.

Статистика форума

Темы
412.188
Сообщения
471.243
Пользователи
91.704
Новый пользователь
Эльза60ке

Приложения форума для iOS и Android


У ркн там нет власти ;)
Приватные разговоры
Помощь Пользователи
    Вы не присоединились ни к одной комнате.