За последнюю неделю опубликовано 59 новых материалов.
Инструкция новичку Путеводитель по форуму Прокси для Telegram Показать подсказки , это бомба!

Скачать Обратная тяга 2 / Backdraft 2 (2019) BDRip-AVC | P бесплатно через торрент

  • Поучаствуй (в качестве покупателя) в любых пяти совместных покупках (кроме завершённых и "Моментальных") и получи группу "Новичок" навсегда -> ссылка на раздел
  • Получай до 480 рублей за каждого приглашенного пользователя!
    представляем Вам очередное расширение партнерской программы, подробности описаны тут -> ссылка
  • 90% материалов доступно к скачиванию после простой регистрации!
    Если же ты хочешь скачивать материалы без требования оставлять отзывы то получи группу "Новичок", 10 способов повышения описаны тут -> ссылка
  • К сожалению количество битых ссылок растет и мы уже не можем их оперативно восстанавливать поэтому просим помощи у каждого нашего пользователя.
    С сегодняшнего дня, за каждую восстановленную ссылку мы заплатим Вам.
    Подробнее тут -> ссылка
  • Перенесем твои заслуги с другого ресурса!
    Мы понимаем как сложно прокачивать аккаунты на форумах, вроде раскачал аккаунт, а тут появляется ресурс в 100 раз круче но тоже с системой прокачки и снова качать аккаунт...
    Предлагаем вам перенести Ваши заслуги на другом подобном ресурсе к нам.
    Подробности описаны тут -> ссылка
  • Вы можете получать по 2.5% с каждой покупки и продажи на маркете! Подробности в теме Партнёрская программа
Если Вы не хотите скачивать, Вы всегда можетепосмотретьонлайн, просто нажмите кнопку ниже :

Открыть плеер

Torrent_Bot

Торрент-Бот
Бот форума
4 Окт 2016
92
163
20


Информация о фильме
Название: Обратная тяга 2
Оригинальное название: Backdraft 2
Год выхода: 2019
Жанр: Боевик, драма, криминал
Режиссер: Гонсало Лопес-Гальего
В ролях: Дональд Сазерленд, Уильям Болдуин, Джо Андерсон, Аластер Маккензи, Патрик Уолш МакБрайд, Эмили Барбер, Росс О'Хеннесси, Марк Арнольд, Алиша Бэйли, Доминик Мафэм, Сирил Нри, Джессамин-Блисс Белл, Кристина Флутур, Адам Дж. Бернард, Сальваторе Лонгобардо, Александр Нгуйен, Шиа Алипур, Индия Семпер-Хьюс, Макс Шерман, Макс Монополи

О фильме:
Шон – сын легендарного чикагского пожарного Стивена МакКэффри («Бык»). Решив пойти по стопам своего покойного отца, он выбрал профессию следователя пожарной службы и теперь занимается расследованиями поджогов в том же депо, где когда-то работал Стивен. Когда несколько детей, пришедших в один из домов за хеллоуинскими сладостями, погибают в результате мощного взрыва, вызванного неисправностью проводки, Шон и его новая напарница понимают, что в этом деле замешано нечто более зловещее, чем обычная случайность...



Страна: США
Студия: Imagine Entertainment, Title Media, Universal 1440 Entertainment
Продолжительность: 01:41:52
Перевод: Профессиональный многоголосый | HDRezka Studio
Субтитры: Русские (Forced), английские

Файл
Формат: Matroska
Качество: BDRip-AVC
Видео: 1104x552 at 23.976 fps, [email protected], ~2485 kbps, 0.170 bpp
Аудио #1: AC3, 6 ch, ~448 kbps - | Русский | - MVO
Аудио #2: AC3, 6 ch, ~448 kbps - | Английский | -
Формат субтитров: softsub (SRT)

***Релиз от:-=DoMiNo=-

M/I
x264 [info]: frame I:968 Avg QP:15.68 size: 72316
x264 [info]: frame P:29073 Avg QP:17.13 size: 28089
x264 [info]: frame B:116494 Avg QP:19.06 size: 8684

General
Format : Matroska
Format version : Version 4
File size : 2.41 GiB
Duration : 1 h 41 min
Overall bit rate : 3 383 kb/s
Movie name : Обратная тяга 2.(2019).BDRip-AVC.[-=DoMiNo=-]
Encoded date : UTC 2020-06-13 07:18:15
Writing application : mkvmerge v47.0.0 ('Black Flag') 64-bit
Writing library : libebml v1.3.10 + libmatroska v1.5.2
Cover : Yes
Attachments : cover.jpg / cover 2.jpg

Video
ID : 1
Format : AVC
Format/Info : Advanced Video Codec
Format profile : [email protected]
Format settings : CABAC / 12 Ref Frames
Format settings, CABAC : Yes
Format settings, Reference : 12 frames
Codec ID : V_MPEG4/ISO/AVC
Duration : 1 h 41 min
Bit rate : 2 485 kb/s
Width : 1 104 pixels
Height : 552 pixels
Display aspect ratio : 2.000
Frame rate mode : Constant
Frame rate : 23.976 (24000/1001) FPS
Color space : YUV
Chroma subsampling : 4:2:0
Bit depth : 8 bits
Scan type : Progressive
Bits/(Pixel*Frame) : 0.170
Stream size : 1.77 GiB (73%)
Title : -=DoMiNo=-
Writing library : x264 core 160 r3007 235ce61
Encoding settings : cabac=1 / ref=12 / deblock=1:-3:-3 / analyse=0x3:0x133 / me=umh / subme=11 / psy=1 / psy_rd=1.00:0.15 / mixed_ref=1 / me_range=32 / chroma_me=1 / trellis=2 / 8x8dct=1 / cqm=0 / deadzone=21,11 / fast_pskip=1 / chroma_qp_offset=-3 / threads=6 / lookahead_threads=1 / sliced_threads=0 / nr=0 / decimate=1 / interlaced=0 / bluray_compat=0 / constrained_intra=0 / bframes=10 / b_pyramid=2 / b_adapt=2 / b_bias=0 / direct=1 / weightb=1 / open_gop=0 / weightp=2 / keyint=250 / keyint_min=23 / scenecut=40 / intra_refresh=0 / rc_lookahead=60 / rc=crf / mbtree=0 / crf=19.0 / qcomp=0.60 / qpmin=0 / qpmax=69 / qpstep=4 / vbv_maxrate=50000 / vbv_bufsize=62500 / crf_max=0.0 / nal_hrd=none / filler=0 / ip_ratio=1.40 / pb_ratio=1.30 / aq=3:1.00
Language : English
Default : Yes
Forced : No
Color range : Limited
Color primaries : BT.709
Transfer characteristics : BT.709
Matrix coefficients : BT.709

Audio #1
ID : 2
Format : AC-3
Format/Info : Audio Coding 3
Commercial name : Dolby Digital
Codec ID : A_AC3
Duration : 1 h 41 min
Bit rate mode : Constant
Bit rate : 448 kb/s
Channel(s) : 6 channels
Channel layout : L R C LFE Ls Rs
Sampling rate : 48.0 kHz
Frame rate : 31.250 FPS (1536 SPF)
Compression mode : Lossy
Stream size : 326 MiB (13%)
Title : MVO
Language : Russian
Service kind : Complete Main
Default : Yes
Forced : No

Audio #2
ID : 3
Format : AC-3
Format/Info : Audio Coding 3
Commercial name : Dolby Digital
Codec ID : A_AC3
Duration : 1 h 41 min
Bit rate mode : Constant
Bit rate : 448 kb/s
Channel(s) : 6 channels
Channel layout : L R C LFE Ls Rs
Sampling rate : 48.0 kHz
Frame rate : 31.250 FPS (1536 SPF)
Compression mode : Lossy
Stream size : 326 MiB (13%)
Language : English
Service kind : Complete Main
Default : No
Forced : No

Text #1
ID : 4
Format : UTF-8
Codec ID : S_TEXT/UTF8
Codec ID/Info : UTF-8 Plain Text
Duration : 1 h 10 min
Bit rate : 0 b/s
Count of elements : 3
Stream size : 126 Bytes (0%)
Language : Russian
Default : No
Forced : Yes

Text #2
ID : 5
Format : UTF-8
Codec ID : S_TEXT/UTF8
Codec ID/Info : UTF-8 Plain Text
Duration : 1 h 37 min
Bit rate : 69 b/s
Count of elements : 1472
Stream size : 50.0 KiB (0%)
Language : English
Default : No
Forced : No

Menu
00:00:00.000 : en:00:00:00.000
00:06:07.993 : en:00:06:07.993
00:10:56.698 : en:00:10:56.698
00:16:13.181 : en:00:16:13.181
00:20:27.893 : en:00:20:27.893
00:24:08.405 : en:00:24:08.405
00:31:55.247 : en:00:31:55.247
00:35:33.256 : en:00:35:33.256
00:41:04.629 : en:00:41:04.629
00:46:02.051 : en:00:46:02.051
00:49:40.477 : en:00:49:40.477
00:53:43.971 : en:00:53:43.971
00:57:37.579 : en:00:57:37.579
01:02:10.101 : en:01:02:10.101
01:09:56.317 : en:01:09:56.317
01:14:24.919 : en:01:14:24.919
01:20:46.759 : en:01:20:46.759
01:26:40.862 : en:01:26:40.862
01:30:57.869 : en:01:30:57.869
01:37:18.374 : en:01:37:18.374
Скриншоты
 

Вложения

  • 97,4 KB Просмотры: 0
    Личеров 0
    Сидеров 0
    Файлов 1
    Объем 2,4 GB

Привет!

Мы группа людей которые решили помочь другим в решении их проблем, а так же пользователям с поиском самых свежих и качественных инфопродуктов. За 4 с небольшим месяца мы создали этот форум на который заходят ежедневно тысячи человек и посещаемость постоянно растёт. Мы создали панель лицензирования для защиты PHP скриптов от воровства и SEO панель для мониторинга наших сайтов и выбора верной стратегии их развития. Мы надеемся что то что мы создали пригодится Вам и возможно Вы поможете нам развиваться и совершенствоваться вместе с Вами.

Статистика форума

Темы
406.678
Сообщения
465.125
Пользователи
84.737
Новый пользователь
Mo0dak

Приложения форума для iOS и Android


У ркн там нет власти ;)
Приватные разговоры
Помощь Пользователи
    Вы не присоединились ни к одной комнате.