За последнюю неделю опубликовано 57 новых материалов.
Инструкция новичку Путеводитель по форуму Прокси для Telegram Показать подсказки , это бомба!

Скачать Области тьмы / Limitless (2011) HybridRip 720p | D | Театральная версия | Open Matte бесплатно через торрент

  • Поучаствуй (в качестве покупателя) в любых пяти совместных покупках (кроме завершённых и "Моментальных") и получи группу "Новичок" навсегда -> ссылка на раздел
  • Получай до 480 рублей за каждого приглашенного пользователя!
    представляем Вам очередное расширение партнерской программы, подробности описаны тут -> ссылка
  • 90% материалов доступно к скачиванию после простой регистрации!
    Если же ты хочешь скачивать материалы без требования оставлять отзывы то получи группу "Новичок", 10 способов повышения описаны тут -> ссылка
  • К сожалению количество битых ссылок растет и мы уже не можем их оперативно восстанавливать поэтому просим помощи у каждого нашего пользователя.
    С сегодняшнего дня, за каждую восстановленную ссылку мы заплатим Вам.
    Подробнее тут -> ссылка
  • Перенесем твои заслуги с другого ресурса!
    Мы понимаем как сложно прокачивать аккаунты на форумах, вроде раскачал аккаунт, а тут появляется ресурс в 100 раз круче но тоже с системой прокачки и снова качать аккаунт...
    Предлагаем вам перенести Ваши заслуги на другом подобном ресурсе к нам.
    Подробности описаны тут -> ссылка
  • Вы можете получать по 2.5% с каждой покупки и продажи на маркете! Подробности в теме Партнёрская программа
Если Вы не хотите скачивать, Вы всегда можетепосмотретьонлайн, просто нажмите кнопку ниже :

Открыть плеер

Torrent_Bot

Торрент-Бот
Бот форума
4 Окт 2016
92
160
20


Информация о фильме
Название: Области тьмы / Limitless (Театральная версия)
Жанр: фантастика, триллер, детектив
Год выпуска: 2011
Режиссер: Нил Бёргер / Neil Burger
В ролях: Брэдли Купер, Эбби Корниш, Роберт Де Ниро, Эндрю Ховард, Анна Фрил, Джонни Витуорт, Томас Арана, Роберт Джон Бёрк, Патриция Кэлембер, Даррен Голдштейн, Нед Эйзенберг, Т.В. Карпио, Ричард Бекинс

Описание:
Нью-йоркский писатель Эдди, желая преодолеть чёрную полосу в жизни, принимает засекреченный препарат под названием NZT. Таблетка выводит мозг парня на работу в нереальной мощности. Этот творческий наркотик меняет всю жизнь Эдди, за короткий срок он зарабатывает кучу денег, но скоро начинает страдать от зловещих побочных эффектов препарата. А когда пытается найти других NZT-гениев, чтобы понять, как можно справиться с этим пристрастием, он узнает страшную правду…



Страна: США
Продолжительность: 01:44:46
Перевод: Профессиональный (дублированный)
Субтитры: Русские, английские

Файл
Формат: Matroska
Качество: HybridRip 720p | Театральная версия | Open Matte
Видео: 1280x720 (16x9) at 23.976 fps, [email protected], ~3961 kbps, 0.179 bpp
Аудио: AC3, 6 ch, ~448 kbps - | Русский | -
Аудио: AC3, 6 ch, ~448 kbps - | Английский | -
Формат субтитров: softsub (SRT)

***Релиз от:-=DoMiNo=-

M/I
x264 [info]: frame I:1107 Avg QP:16.90 size: 92259
x264 [info]: frame P:31065 Avg QP:18.18 size: 41590
x264 [info]: frame B:118547 Avg QP:20.87 size: 14493
x264 [info]: consecutive B-frames: 1.9% 2.6% 7.1% 13.4% 14.1% 49.1% 5.8% 1.5% 0.3% 3.4% 0.2% 0.7% 0.1%

General
Format : Matroska
Format version : Version 4
File size : 3.56 GiB
Duration : 1 h 44 min
Overall bit rate : 4 859 kb/s
Movie name : Области тьмы.(2011).HybridRip-AVC.O.M.[-=DoMiNo=-]
Encoded date : UTC 2020-08-03 14:54:47
Writing application : mkvmerge v49.0.0 ('Sick Of Losing Soulmates') 64-bit
Writing library : libebml v1.4.0 + libmatroska v1.6.1
Cover : Yes
Attachments : Cover.jpeg / Cover 2.jpg

Video
ID : 1
Format : AVC
Format/Info : Advanced Video Codec
Format profile : [email protected]
Format settings : CABAC / 9 Ref Frames
Format settings, CABAC : Yes
Format settings, Reference : 9 frames
Codec ID : V_MPEG4/ISO/AVC
Duration : 1 h 44 min
Bit rate : 3 961 kb/s
Width : 1 280 pixels
Height : 720 pixels
Display aspect ratio : 16:9
Frame rate mode : Constant
Frame rate : 23.976 (24000/1001) FPS
Color space : YUV
Chroma subsampling : 4:2:0
Bit depth : 8 bits
Scan type : Progressive
Bits/(Pixel*Frame) : 0.179
Stream size : 2.90 GiB (82%)
Title : -=DoMiNo=-
Writing library : x264 core 161 r3018 db0d417
Encoding settings : cabac=1 / ref=9 / deblock=1:-3:-3 / analyse=0x3:0x133 / me=umh / subme=10 / psy=1 / psy_rd=1.00:0.20 / mixed_ref=1 / me_range=32 / chroma_me=1 / trellis=2 / 8x8dct=1 / cqm=0 / deadzone=21,11 / fast_pskip=0 / chroma_qp_offset=-3 / threads=6 / lookahead_threads=1 / sliced_threads=0 / nr=0 / decimate=1 / interlaced=0 / bluray_compat=0 / constrained_intra=0 / bframes=12 / b_pyramid=2 / b_adapt=2 / b_bias=0 / direct=1 / weightb=1 / open_gop=0 / weightp=2 / keyint=250 / keyint_min=23 / scenecut=40 / intra_refresh=0 / rc_lookahead=60 / rc=crf / mbtree=0 / crf=19.5 / qcomp=0.60 / qpmin=0 / qpmax=69 / qpstep=4 / vbv_maxrate=50000 / vbv_bufsize=62500 / crf_max=0.0 / nal_hrd=none / filler=0 / ip_ratio=1.40 / pb_ratio=1.30 / aq=1:1.00
Language : English
Default : Yes
Forced : No
Color range : Limited
Color primaries : BT.709
Transfer characteristics : BT.709
Matrix coefficients : BT.709

Audio #1
ID : 2
Format : AC-3
Format/Info : Audio Coding 3
Commercial name : Dolby Digital
Codec ID : A_AC3
Duration : 1 h 44 min
Bit rate mode : Constant
Bit rate : 448 kb/s
Channel(s) : 6 channels
Channel layout : L R C LFE Ls Rs
Sampling rate : 48.0 kHz
Frame rate : 31.250 FPS (1536 SPF)
Compression mode : Lossy
Stream size : 336 MiB (9%)
Title : DUB
Language : Russian
Service kind : Complete Main
Default : Yes
Forced : No

Audio #2
ID : 3
Format : AC-3
Format/Info : Audio Coding 3
Commercial name : Dolby Digital
Codec ID : A_AC3
Duration : 1 h 44 min
Bit rate mode : Constant
Bit rate : 448 kb/s
Channel(s) : 6 channels
Channel layout : L R C LFE Ls Rs
Sampling rate : 48.0 kHz
Frame rate : 31.250 FPS (1536 SPF)
Compression mode : Lossy
Stream size : 336 MiB (9%)
Language : English
Service kind : Complete Main
Default : No
Forced : No

Text #1
ID : 4
Format : UTF-8
Codec ID : S_TEXT/UTF8
Codec ID/Info : UTF-8 Plain Text
Duration : 1 h 37 min
Bit rate : 97 b/s
Count of elements : 1071
Stream size : 70.0 KiB (0%)
Language : Russian
Default : No
Forced : No

Text #2
ID : 5
Format : UTF-8
Codec ID : S_TEXT/UTF8
Codec ID/Info : UTF-8 Plain Text
Duration : 1 h 44 min
Bit rate : 71 b/s
Count of elements : 1367
Stream size : 54.4 KiB (0%)
Language : English
Default : No
Forced : No

Text #3
ID : 6
Format : UTF-8
Codec ID : S_TEXT/UTF8
Codec ID/Info : UTF-8 Plain Text
Duration : 1 h 44 min
Bit rate : 66 b/s
Count of elements : 1367
Stream size : 51.2 KiB (0%)
Language : English
Default : No
Forced : No

Menu
00:00:00.000 : :00:00:00.000
00:03:49.104 : :00:03:49.104
00:06:52.621 : :00:06:52.621
00:11:02.412 : :00:11:02.412
00:16:24.108 : :00:16:24.108
00:20:36.485 : :00:20:36.485
00:24:16.246 : :00:24:16.246
00:28:51.772 : :00:28:51.772
00:34:04.209 : :00:34:04.209
00:38:12.081 : :00:38:12.081
00:42:17.535 : :00:42:17.535
00:46:43.968 : :00:46:43.968
00:51:04.395 : :00:51:04.395
00:54:25.679 : :00:54:25.679
00:59:17.512 : :00:59:17.512
01:05:38.685 : :01:05:38.685
01:08:36.571 : :01:08:36.571
01:11:40.046 : :01:11:40.046
01:14:40.184 : :01:14:40.184
01:18:20.446 : :01:18:20.446
01:21:46.943 : :01:21:46.943
01:27:14.771 : :01:27:14.771
01:31:43.164 : :01:31:43.164
01:38:14.055 : :01:38:14.055
Примечания:
Исходник видео Hybrid 1080p.
Open Matte-версия фильма имеет большее наполнение кадра по сравнению с Blu-ray.
ЦитатаКто-то писал:
OAR BluRay наложен поверх open matte DVD с помощью AutoOverlay AviSynth plugin.
Хронометраж соответствует BD.
Различия версий: https://www.movie-censorship.com/report.php?ID=676497

***Сравнения => BD vs Hybrid Open Matte

Различия театральной и расширенной версий
Полностью дублирована на русский язык только театральная версия
В расширенную версию добавлены несколько микроэпизодов, отсутствующих в театральной версии, и альтернативные ракурсы съемки некоторых эпизодов
В расширенной версии используется нецензурная лексика
В расширенной версии есть несколько микроэпизодов с обнаженкой и насилием
В целом, расширенная версия не несет ничего принципиально нового, длиннее всего на минуту + на нее отсутствует полноценный дубляж
Скриншоты
 

Вложения

  • 72,2 KB Просмотры: 0
    Личеров 0
    Сидеров 0
    Файлов 1
    Объем 3,6 GB

Привет!

Мы группа людей которые решили помочь другим в решении их проблем, а так же пользователям с поиском самых свежих и качественных инфопродуктов. За 4 с небольшим месяца мы создали этот форум на который заходят ежедневно тысячи человек и посещаемость постоянно растёт. Мы создали панель лицензирования для защиты PHP скриптов от воровства и SEO панель для мониторинга наших сайтов и выбора верной стратегии их развития. Мы надеемся что то что мы создали пригодится Вам и возможно Вы поможете нам развиваться и совершенствоваться вместе с Вами.

Статистика форума

Темы
406.651
Сообщения
465.096
Пользователи
84.640
Новый пользователь
kvach

Приложения форума для iOS и Android


У ркн там нет власти ;)
Приватные разговоры
Помощь Пользователи
    Вы не присоединились ни к одной комнате.