За последнюю неделю опубликовано 53 новых материалов.
Инструкция новичку Путеводитель по форуму Прокси для Telegram Показать подсказки , это бомба!

Скачать Обитель зла 2: Апокалипсис / Resident Evil: Apocalypse (2004) BDRip 1080p | D, P, P2, A | Theatrical Cut | Open Matte бесплатно через торрент

  • Поучаствуй (в качестве покупателя) в любых пяти совместных покупках (кроме завершённых и "Моментальных") и получи группу "Новичок" навсегда -> ссылка на раздел
  • Получай до 480 рублей за каждого приглашенного пользователя!
    представляем Вам очередное расширение партнерской программы, подробности описаны тут -> ссылка
  • 90% материалов доступно к скачиванию после простой регистрации!
    Если же ты хочешь скачивать материалы без требования оставлять отзывы то получи группу "Новичок", 10 способов повышения описаны тут -> ссылка
  • К сожалению количество битых ссылок растет и мы уже не можем их оперативно восстанавливать поэтому просим помощи у каждого нашего пользователя.
    С сегодняшнего дня, за каждую восстановленную ссылку мы заплатим Вам.
    Подробнее тут -> ссылка
  • Перенесем твои заслуги с другого ресурса!
    Мы понимаем как сложно прокачивать аккаунты на форумах, вроде раскачал аккаунт, а тут появляется ресурс в 100 раз круче но тоже с системой прокачки и снова качать аккаунт...
    Предлагаем вам перенести Ваши заслуги на другом подобном ресурсе к нам.
    Подробности описаны тут -> ссылка
  • Вы можете получать по 2.5% с каждой покупки и продажи на маркете! Подробности в теме Партнёрская программа
Если Вы не хотите скачивать, Вы всегда можетепосмотретьонлайн, просто нажмите кнопку ниже :

Открыть плеер

Torrent_Bot

Торрент-Бот
Бот форума
4 Окт 2016
91
163
20
Информация о фильме
Название: Обитель зла 2: Апокалипсис
Оригинальное название: Resident Evil: Apocalypse
Год выпуска: 2004
Жанр: ужасы, фантастика, боевик, триллер
Режиссер: Александр Уитт
В ролях: Милла Йовович (Alice), Сиенна Гиллори (Jill Valentine), Одед Фер (Carlos Olivera), Томас Кречман (Major Cain), Софи Вавасо (Angie Ashford), Разаак Адоти (Sgt. Peyton Wells), Джаред Харрис (Dr. Ashford), Майк Эппс (L.J.), Сандрин Холт (Terri Morales), Мэттью Дж. Тейлор (Nemesis), Зак Уорд (Nicholai Ginovaeff), Иэн Глен (Dr. Isaacs)

О фильме: Действие картины разворачивается на улицах Ракун-сити - города, контролируемого могущественной корпорацией «Амбрелла». После бактериологической катастрофы все жители медленно превращаются в зомби, а те немногочисленные граждане, чей разум ещё не до конца изъеден ужасным вирусом, доживают свои последние дни в атмосфере страха и с желанием скорейшей смерти...



MPAA: R - Лицам до 17 лет обязательно присутствие взрослого

Страна: Германия, Франция, Великобритания, Канада, США
Студия: Constantin Film Ltd., Constantin Film Produktion GmbH, Davis-Films
Продолжительность: 01:33:35
Перевод: Профессиональный (дублированный), Профессиональный (многоголосый, закадровый), Профессиональный (двухголосый, закадровый), Авторский (одноголосый, закадровый)

Релиз: | spartanec163

Файл
Качество: BDRip 1080p | SOFCJ
Формат: Matroska
Видео: 1920x1080 at 23.976 fps, x264, ~13000 kbps avg
Аудио#1: Russian: 48 kHz, DTS, 3/2 (L,C,R,l,r) + LFE ch, ~1509 kbps avg |Дубляж, Парадиз-ВС|
Аудио#2: Russian: 48 kHz, DTS, 3/2 (L,C,R,l,r) + LFE ch, ~1509 kbps avg |Двухголосый закадровый, П.Гланц и И.Королёва|
Аудио#3: Russian: 48 kHz, DTS, 3/2 (L,C,R,l,r) + LFE ch, ~1509 kbps avg |Двухголосый закадровый, Tycoon Studio|
Аудио#4: Russian: 48 kHz, AC3, 3/2 (L,C,R,l,r) + LFE ch, ~448 kbps avg |Многоголосый закадровый, FDV|
Аудио#5: Russian: 48 kHz, AC3, 2/0 (L,R) ch, ~128 kbps avg |Двухголосый закадровый, Д.Беспалый и И.Савина|
Аудио#6: Russian: 48 kHz, AC3, 2/0 (L,R) ch, ~192 kbps avg |Многоголосый закадровый, РТР|
Аудио#7: Russian: 48 kHz, DTS, 3/2 (L,C,R,l,r) + LFE ch, ~1509 kbps avg |Авторский, Ю.Живов|
Аудио#8: Russian: 48 kHz, AC3, 3/2 (L,C,R,l,r) + LFE ch, ~448 kbps avg |Авторский, А.Гаврилов|
Аудио#9: Russian: 48 kHz, AC3, 3/2 (L,C,R,l,r) + LFE ch, ~448 kbps avg |Авторский, Л.Володарский|
Аудио#10: Russian: 48 kHz, AC3, 2/0 (L,R) ch, ~192 kbps avg |Авторский, С.Визгунов|
Аудио#11: English: 48 kHz, DTS, 3/2 (L,C,R,l,r) + LFE ch, ~1509 kbps avg
Субтитры: Russian, English

Знаете ли вы, что...
Фильм снят по мотивам серии компьютерных игр «Resident Evil» (1996 - н. в., Capcom).
Наташа Хенстридж вполне могла сыграть роль Джилл Валентайн, однако не смогла принять это предложение ввиду более заманчивых предложений. В итоге роль досталась Сиенне Гиллори. Актриса заявила, что взяла манеры поведения и походку своего персонажа на основе впечатлений от одноименной видеоигры.
«Немезида» - так называется третья часть культовой видеоигры, по мотивам которой и началась работа над данной картиной. Именно такое название первоначально и носила вторая часть «Обители зла». Чуть позднее это название было изменено на текущее -«Обитель зла 2: Апокалипсис», ибо в 2002 году был выпущен фильм «Звездный путь: Немезида».
Джейсон Айзекс мог сыграть роль доктора Биркина, но выбыл из проекта.
Трейлер (рекламный видеоролик) к этой картине стал одним из самых популярных. За период с ноября 2003 по май 2004 ролик был скачан 8,5 миллионами пользователей.
Оружие под названием «Немезида» (на самом деле оно носит название M134) является разработкой компании General Electric. Впрочем, специально для фильма был подготовлен эксклюзивный вариант.
Здание, взрывающееся в картине (разумеется, не по-настоящему), существует в действительности - это административный центр Торонто.
По словам Пола Андерсона (сценариста и продюсера) имя доктора Айзекса (Айэйн Глен) - знак уважения актеру Джейсону Айзексу, закадровый голос которого мы можем услышать в самом начале первого фильма.
Телефонная гарнитура, которой пользуется майор Кейн, - SonyEricsson HBH-65 bluetooth headset.
Если не учитывать кадры с участием Эрика Мэбиуса, то единственным персонажем, перешедшим из первой картины, будет Элис (Милла Йовович).
Персонаж доктора Эшфорда был назван в честь семьи Эшфорд в серии видеоигр «Resident Evil». Однако, в фильме это - положительный персонаж, а в видеоиграх - отрицательный.
В фильме были использованы сюжетные линии видеоигр «Resident Evil 2» (1998) и «Resident Evil 3: Nemesis» (1999).
В фильме Немезис произносит лишь только одно слово - «STARS». В видеоигре «Resident Evil 3: Nemesis» (1999) он неоднократно произносил данное слово.
В финальной схватке мы можем услышать слова «Прикончи его» (Finish him). Данная фраза - цитата из видеоигр серии «Mortal Kombat». Пол Андерсон был режиссером экранизации данной игры.
Один из заголовков в газете - «Мертвецы идут!» (The Dead Walk!). Это - намек на «День мертвецов» (1985), где в самом начале фильма можно заметить газету с точно таким же заголовком.
В фильме содержится множество намеков и ссылок на серию видеоигр «Resident Evil». Вот лишь некоторые из них:
Крупный план глаза Элис незадолго до концовки фильма - ссылка на первую часть видеоигры.
Начальная сцена, где Элис просыпается в больнице и до момента, когда она перезаряжает дробовик, целиком состоит из кадров первого фильма.
На DVD для первого региона содержится около 12 минут удаленных сцен.
По словам Пола Андерсона, Снуп Дог должен был исполнить роль Эл Джея, но покинул проект незадолго до начала съёмок.
Когда сотрудники компании Umbrella эвакуируют людей из первого дома, то на экране телевизора можно заметить рекламу косметического продукта «Regenerate», кадры для которой были взяты из тизера к фильму.
Тизер фильма специально был выдержан в ключе роликов, рекламирующих косметические продукты. В данном ролике говорилось, что в новом креме для кожи содержатся Т-клетки. В фильмах и видеоиграх мутации начались из-за Т-вируса. В тизере не было ни одного кадра из второго фильма, он целиком состоял из кадров, специально снятых для данного ролика, либо из кадров первого фильма.
Эмили Бергл должна была сыграть Клэр Редфилд, но впоследствии покинула проект.
Костюм Немезиса весил около 30 фунтов (примерно 13,6 кг.). Его пулемет, который он держит одной рукой, весил 65 фунтов (29,5 кг).
Строительство декораций церкви заняло семь недель.
Слово «зомби» ни разу не произносится по ходу действия фильма. Однако, его можно заметить на финальных титрах.
Кадр в концовке фильма, в котором зомби поднимают головы, чтобы посмотреть на летящую ракету, - покадровое воспроизведение концовки «Resident Evil 3: Nemesis» (1999).
Режиссёр фильма Александр Уитт сыграл камео в роли снайпера на крыше мэрии Раккун сити.
Бен Муди, бывший ведущий гитарист в рок-группе «Evanescence», появляется в одном из эпизодов фильма как зомби, что упоминается в комментариях на DVD.
Тоби Магуайр и Джош Хартнетт должны были сыграть Криса Редфилда и Леона Кеннеди.
На 00:07:50 видно, что Милла Йовович в какой-то синей кофте (на правом плече), а в следующем кадре она в белой простыне.
Blu-ray vs Open Matte
BDRip 1080p vs Blu-ray 1080p


MediaInfo
Общее
Уникальный идентификатор : 184837584518860543930817455485469751364 (0x8B0E6C83E0ED1701805B21E271C67844)
Полное имя : Resident.Evil.Apocalypse.2004.Theatrical.Cut.Open.Matte.1080p.BDRip.10xRus.Eng.TeamHD.mkv
Формат : Matroska
Версия формата : Version 4 / Version 2
Размер файла : 14,8 Гбайт
Продолжительность : 1 ч. 33 м.
Общий поток : 22,7 Мбит/сек
Название фильма : Resident.Evil.Apocalypse.2004.Theatrical.Cut.Open.Matte.1080p.BDRip.10xRus.Eng.TeamHD-spartanec163
Дата кодирования : UTC 2018-08-28 16:41:58
Программа кодирования : mkvmerge v8.3.0 ('Over the Horizon') 64bit
Библиотека кодирования : libebml v1.3.1 + libmatroska v1.4.2

Видео
Идентификатор : 1
Формат : AVC
Формат/Информация : Advanced Video Codec
Профиль формата : [email protected]
Параметр CABAC формата : Да
Параметр ReFrames формата : 5 кадров
Идентификатор кодека : V_MPEG4/ISO/AVC
Продолжительность : 1 ч. 33 м.
Битрейт : 12,8 Мбит/сек
Ширина : 1920 пикселей
Высота : 1080 пикселей
Соотношение сторон : 16:9
Режим частоты кадров : Постоянный
Частота кадров : 23,976 кадра/сек
Цветовое пространство : YUV
Субдискретизация насыщенности : 4:2:0
Битовая глубина : 8 бит
Тип развёртки : Прогрессивная
Бит/(Пиксели*Кадры) : 0.258
Размер потока : 8,39 Гбайт (57%)
Заголовок : BDRip 1080p (Rip by SOFCJ)
Библиотека кодирования : x264 core 155 r2867+82 a249126 t_mod_Custom_2 [[email protected] X86_64]
Настройки программы : cabac=1 / ref=5 / deblock=1:-3:-3 / analyse=0x3:0x133 / me=umh / subme=11 / psy=1 / fade_compensate=0.00 / psy_rd=1.00:0.00 / mixed_ref=1 / me_range=32 / chroma_me=1 / trellis=2 / 8x8dct=1 / cqm=0 / deadzone=21,11 / fast_pskip=0 / chroma_qp_offset=-2 / threads=12 / lookahead_threads=2 / sliced_threads=0 / nr=0 / decimate=0 / interlaced=0 / bluray_compat=0 / constrained_intra=0 / fgo=0 / bframes=8 / b_pyramid=2 / b_adapt=2 / b_bias=0 / direct=3 / weightb=1 / open_gop=0 / weightp=2 / keyint=250 / keyint_min=23 / scenecut=40 / intra_refresh=0 / rc_lookahead=60 / rc=crf / mbtree=1 / crf=17.5000 / qcomp=0.65 / qpmin=0:0:0 / qpmax=69:69:69 / qpstep=4 / vbv_maxrate=62500 / vbv_bufsize=78125 / crf_max=0.0 / nal_hrd=none / filler=0 / ip_ratio=1.40 / aq=1:1.00 / aq-sensitivity=10.00 / aq-factor=1.00:1.00:1.00 / aq2=0 / aq3=0 / zones=127366,134626,crf=19.0
Язык : English
Default : Да
Forced : Нет
Основные цвета : BT.709
Характеристики трансфера : BT.709
Коэффициенты матрицы : BT.709

Аудио #1
Идентификатор : 2
Формат : DTS
Формат/Информация : Digital Theater Systems
Режим : 16
Параметр Endianness формата : Big
Идентификатор кодека : A_DTS
Продолжительность : 1 ч. 33 м.
Вид битрейта : Постоянный
Битрейт : 1509 Кбит/сек
Каналы : 6 каналов
Расположение каналов : Front: L C R, Side: L R, LFE
Частота : 48,0 КГц
Битовая глубина : 24 бит
Метод сжатия : С потерями
Размер потока : 1010 Мбайт (7%)
Заголовок : DTS 5.1 1509Kbps (Дубляж - Парадиз-ВС)
Язык : Russian
Default : Да
Forced : Нет

Аудио #2
Идентификатор : 3
Формат : DTS
Формат/Информация : Digital Theater Systems
Режим : 16
Параметр Endianness формата : Big
Идентификатор кодека : A_DTS
Продолжительность : 1 ч. 33 м.
Вид битрейта : Постоянный
Битрейт : 1509 Кбит/сек
Каналы : 6 каналов
Расположение каналов : Front: L C R, Side: L R, LFE
Частота : 48,0 КГц
Битовая глубина : 24 бит
Метод сжатия : С потерями
Размер потока : 1010 Мбайт (7%)
Заголовок : DTS 5.1 1509Kbps (Профессиональный, двухголосый - П. Гланц и И. Королёва)
Язык : Russian
Default : Нет
Forced : Нет

Аудио #3
Идентификатор : 4
Формат : DTS
Формат/Информация : Digital Theater Systems
Режим : 16
Параметр Endianness формата : Big
Идентификатор кодека : A_DTS
Продолжительность : 1 ч. 33 м.
Вид битрейта : Постоянный
Битрейт : 1509 Кбит/сек
Каналы : 6 каналов
Расположение каналов : Front: L C R, Side: L R, LFE
Частота : 48,0 КГц
Битовая глубина : 24 бит
Метод сжатия : С потерями
Размер потока : 1010 Мбайт (7%)
Заголовок : DTS 5.1 1509Kbps (Профессиональный, двухголосый - Tycoon Studio)
Язык : Russian
Default : Нет
Forced : Нет

Аудио #4
Идентификатор : 5
Формат : AC-3
Формат/Информация : Audio Coding 3
Расширение режима : CM (complete main)
Параметр Endianness формата : Big
Идентификатор кодека : A_AC3
Продолжительность : 1 ч. 33 м.
Вид битрейта : Постоянный
Битрейт : 448 Кбит/сек
Каналы : 6 каналов
Расположение каналов : Front: L C R, Side: L R, LFE
Частота : 48,0 КГц
Битовая глубина : 16 бит
Метод сжатия : С потерями
Размер потока : 300 Мбайт (2%)
Заголовок : AC3 5.1 448Kbps (Профессиональный, многоголосый - FDV)
Язык : Russian
Default : Нет
Forced : Нет

Аудио #5
Идентификатор : 6
Формат : AC-3
Формат/Информация : Audio Coding 3
Расширение режима : CM (complete main)
Параметр Endianness формата : Big
Идентификатор кодека : A_AC3
Продолжительность : 1 ч. 33 м.
Вид битрейта : Постоянный
Битрейт : 128 Кбит/сек
Каналы : 2 канала
Расположение каналов : Front: L R
Частота : 48,0 КГц
Битовая глубина : 16 бит
Метод сжатия : С потерями
Размер потока : 85,7 Мбайт (1%)
Заголовок : AC3 2.0 128Kbps (Профессиональный, двухголосый - Денис Беспалый и Ирина Савина)
Язык : Russian
Default : Нет
Forced : Нет

Аудио #6
Идентификатор : 7
Формат : AC-3
Формат/Информация : Audio Coding 3
Расширение режима : CM (complete main)
Параметр Endianness формата : Big
Идентификатор кодека : A_AC3
Продолжительность : 1 ч. 33 м.
Вид битрейта : Постоянный
Битрейт : 192 Кбит/сек
Каналы : 2 канала
Расположение каналов : Front: L R
Частота : 48,0 КГц
Битовая глубина : 16 бит
Метод сжатия : С потерями
Размер потока : 129 Мбайт (1%)
Заголовок : AC3 2.0 192Kbps (Профессиональный, многоолосый - РТР)
Язык : Russian
Default : Нет
Forced : Нет

Аудио #7
Идентификатор : 8
Формат : DTS
Формат/Информация : Digital Theater Systems
Режим : 16
Параметр Endianness формата : Big
Идентификатор кодека : A_DTS
Продолжительность : 1 ч. 33 м.
Вид битрейта : Постоянный
Битрейт : 1509 Кбит/сек
Каналы : 6 каналов
Расположение каналов : Front: L C R, Side: L R, LFE
Частота : 48,0 КГц
Битовая глубина : 24 бит
Метод сжатия : С потерями
Размер потока : 1010 Мбайт (7%)
Заголовок : DTS 5.1 1509Kbps (Авторский, одноголосый - Ю. Живов)
Язык : Russian
Default : Нет
Forced : Нет

Аудио #8
Идентификатор : 9
Формат : AC-3
Формат/Информация : Audio Coding 3
Расширение режима : CM (complete main)
Параметр Endianness формата : Big
Идентификатор кодека : A_AC3
Продолжительность : 1 ч. 33 м.
Вид битрейта : Постоянный
Битрейт : 448 Кбит/сек
Каналы : 6 каналов
Расположение каналов : Front: L C R, Side: L R, LFE
Частота : 48,0 КГц
Битовая глубина : 16 бит
Метод сжатия : С потерями
Размер потока : 300 Мбайт (2%)
Заголовок : AC3 5.1 448Kbps (Авторский, одноголосый - А. Гаврилов)
Язык : Russian
Default : Нет
Forced : Нет

Аудио #9
Идентификатор : 10
Формат : AC-3
Формат/Информация : Audio Coding 3
Расширение режима : CM (complete main)
Параметр Endianness формата : Big
Идентификатор кодека : A_AC3
Продолжительность : 1 ч. 33 м.
Вид битрейта : Постоянный
Битрейт : 448 Кбит/сек
Каналы : 6 каналов
Расположение каналов : Front: L C R, Side: L R, LFE
Частота : 48,0 КГц
Битовая глубина : 16 бит
Метод сжатия : С потерями
Размер потока : 300 Мбайт (2%)
Заголовок : AC3 5.1 448Kbps (Авторский, одноголосый - Л. Володарский)
Язык : Russian
Default : Нет
Forced : Нет

Аудио #10
Идентификатор : 11
Формат : AC-3
Формат/Информация : Audio Coding 3
Расширение режима : CM (complete main)
Параметр Endianness формата : Big
Идентификатор кодека : A_AC3
Продолжительность : 1 ч. 33 м.
Вид битрейта : Постоянный
Битрейт : 192 Кбит/сек
Каналы : 2 канала
Расположение каналов : Front: L R
Частота : 48,0 КГц
Битовая глубина : 16 бит
Метод сжатия : С потерями
Размер потока : 129 Мбайт (1%)
Заголовок : AC3 2.0 192Kbps (Авторский, одноголосый - С. Визгунов)
Язык : Russian
Default : Нет
Forced : Нет

Аудио #11
Идентификатор : 12
Формат : DTS
Формат/Информация : Digital Theater Systems
Режим : 16
Параметр Endianness формата : Big
Идентификатор кодека : A_DTS
Продолжительность : 1 ч. 33 м.
Вид битрейта : Постоянный
Битрейт : 1509 Кбит/сек
Каналы : 6 каналов
Расположение каналов : Front: L C R, Side: L R, LFE
Частота : 48,0 КГц
Битовая глубина : 24 бит
Метод сжатия : С потерями
Размер потока : 1010 Мбайт (7%)
Заголовок : DTS 5.1 1509Kbps (Оригинал)
Язык : English
Default : Нет
Forced : Нет

Текст #1
Идентификатор : 13
Формат : UTF-8
Идентификатор кодека : S_TEXT/UTF8
Идентификатор кодека/Информация : UTF-8 Plain Text
Язык : Russian
Default : Нет
Forced : Нет

Текст #2
Идентификатор : 14
Формат : UTF-8
Идентификатор кодека : S_TEXT/UTF8
Идентификатор кодека/Информация : UTF-8 Plain Text
Язык : English
Default : Нет
Forced : Нет
Скриншоты
 

Вложения

  • 75,1 KB Просмотры: 1
    Личеров 0
    Сидеров 0
    Файлов 1
    Объем 14,8 GB

Привет!

Мы группа людей которые решили помочь другим в решении их проблем, а так же пользователям с поиском самых свежих и качественных инфопродуктов. За 4 с небольшим месяца мы создали этот форум на который заходят ежедневно тысячи человек и посещаемость постоянно растёт. Мы создали панель лицензирования для защиты PHP скриптов от воровства и SEO панель для мониторинга наших сайтов и выбора верной стратегии их развития. Мы надеемся что то что мы создали пригодится Вам и возможно Вы поможете нам развиваться и совершенствоваться вместе с Вами.

Статистика форума

Темы
410.538
Сообщения
469.078
Пользователи
86.036
Новый пользователь
wessd

Приложения форума для iOS и Android


У ркн там нет власти ;)
Приватные разговоры
Помощь Пользователи
    Вы не присоединились ни к одной комнате.