За последнюю неделю опубликовано 168 новых материалов.
Инструкция новичку Путеводитель по форуму Прокси для Telegram Показать подсказки , это бомба!

Скачать Обезьяны / Monos (2019) WEBRip 1080p | L2, L1 бесплатно через торрент

  • Поучаствуй (в качестве покупателя) в любых пяти совместных покупках (кроме завершённых и "Моментальных") и получи группу "Новичок" навсегда -> ссылка на раздел
  • Получай до 480 рублей за каждого приглашенного пользователя!
    представляем Вам очередное расширение партнерской программы, подробности описаны тут -> ссылка
  • 90% материалов доступно к скачиванию после простой регистрации!
    Если же ты хочешь скачивать материалы без требования оставлять отзывы то получи группу "Новичок", 10 способов повышения описаны тут -> ссылка
  • К сожалению количество битых ссылок растет и мы уже не можем их оперативно восстанавливать поэтому просим помощи у каждого нашего пользователя.
    С сегодняшнего дня, за каждую восстановленную ссылку мы заплатим Вам.
    Подробнее тут -> ссылка
  • Перенесем твои заслуги с другого ресурса!
    Мы понимаем как сложно прокачивать аккаунты на форумах, вроде раскачал аккаунт, а тут появляется ресурс в 100 раз круче но тоже с системой прокачки и снова качать аккаунт...
    Предлагаем вам перенести Ваши заслуги на другом подобном ресурсе к нам.
    Подробности описаны тут -> ссылка
  • Вы можете получать по 2.5% с каждой покупки и продажи на маркете! Подробности в теме Партнёрская программа
Если Вы не хотите скачивать, Вы всегда можетепосмотретьонлайн, просто нажмите кнопку ниже :

Открыть плеер

Torrent_Bot

Торрент-Бот
Бот форума
4 Окт 2016
124
98
20



Информация о фильме
Название: Обезьяны
Оригинальное название: Monos
Год выхода: 2019
Жанр: Триллер, драма, приключения
Режиссер: Алехандро Ландес
В ролях: София Буэнавентура, Джулиан Хиральдо, Карен Кинтеро, Лаура Кастрильон, Дейби Руэда, Пол Кубидес, Снейдер Кастро, Мойзес Ариас, Джулианна Николсон, Уилсон Салазар

О фильме:
Сюжет картины переносит нас в северную Колумбию, где происходят по-настоящему ужасные события. Группа молодых людей стараются выжить в непростых условиях. Однажды ребята решают захватить заложника и потребовать за его жизнь выкуп. Героям кажется, что это просто веселая игра, и в их действиях совершенно нет ничего плохого. Постепенно вчерашние мальчики и девочки полностью теряют контроль над своим разумом и превращаются в жестоких зверей.



Страна: Колумбия, Аргентина, Нидерланды, Германия, Швеция, Уругвай, США, Швейцария, Дания
Студия: Stela Cine, Bord Cadre Films, Counter Narrative Films, Pandora Filmproduktion GmbH
Продолжительность: 01:43:28
Перевод: Любительский двухголосый, Любительский одноголосый

Файл
Кодек: x.264
Качество: WEBRip 1080p
Видео: MPEG-4 AVC, 2500 Kбит/с, 1920x800, 23.976 кадр/с
Аудио #1: Русский (АС3, 2 ch, 256 Кбит/с, 48.0 KHz) Любительский (двухголосый, закадровый) LakeFilms
Аудио #2: Русский (АС3, 6 ch, 448 Кбит/с, 48.0 KHz) Любительский (одноголосый, закадровый) zamez
Аудио #3: Испанский (АС3, 6 ch, 640 Кбит/с, 48.0 KHz)
Субтитры: Русские (Full (Автор перевода: Антон Коляго), английские (вшитые в видео)
► Без Рекламы !
MediaInfo
Источник: Monos.2019.SPANISH.ENSUBBED.1080p.WEBRip
General
Unique ID : 221261103994124914805732599580042444290 (0xA67556AC979367C2B60AB1AA83BBBE02)
Complete name : Monos.2019.SPANISH.WEBRip.1080p.mkv
Format : Matroska
Format version : Version 4
File size : 2.78 GiB
Duration : 1 h 43 min
Overall bit rate : 3 845 kb/s
Movie name : Monos_2019
Encoded date : UTC 2020-01-10 20:36:18
Writing application : mkvmerge v7.1.0 ('Good Love') 64bit built on Jul 27 2014 13:06:55
Writing library : libebml v1.3.0 + libmatroska v1.4.1

Video
ID : 1
Format : AVC
Format/Info : Advanced Video Codec
Format profile : High@L4.1
Format settings : CABAC / 4 Ref Frames
Format settings, CABAC : Yes
Format settings, Reference fra : 4 frames
Codec ID : V_MPEG4/ISO/AVC
Duration : 1 h 43 min
Bit rate : 2 500 kb/s
Width : 1 920 pixels
Height : 800 pixels
Display aspect ratio : 2.40:1
Frame rate mode : Constant
Frame rate : 23.976 (23976/1000) FPS
Color space : YUV
Chroma subsampling : 4:2:0
Bit depth : 8 bits
Scan type : Progressive
Bits/(Pixel*Frame) : 0.068
Stream size : 1.81 GiB (65%)
Writing library : x264 core 152 r2851M ba24899
Encoding settings : cabac=1 / ref=4 / deblock=1:-1:-1 / analyse=0x3:0x113 / me=umh / subme=9 / psy=1 / psy_rd=1.00:0.15 / mixed_ref=1 / me_range=24 / chroma_me=1 / trellis=2 / 8x8dct=1 / cqm=0 / deadzone=21,11 / fast_pskip=1 / chroma_qp_offset=-3 / threads=16 / lookahead_threads=4 / sliced_threads=0 / nr=0 / decimate=1 / interlaced=0 / bluray_compat=0 / constrained_intra=0 / bframes=3 / b_pyramid=2 / b_adapt=2 / b_bias=0 / direct=3 / weightb=1 / open_gop=0 / weightp=2 / keyint=250 / keyint_min=25 / scenecut=40 / intra_refresh=0 / rc_lookahead=50 / rc=2pass / mbtree=1 / bitrate=2500 / ratetol=1.0 / qcomp=0.60 / qpmin=0 / qpmax=69 / qpstep=4 / cplxblur=20.0 / qblur=0.5 / vbv_maxrate=31250 / vbv_bufsize=31250 / nal_hrd=none / filler=0 / ip_ratio=1.40 / aq=3:1.00
Language : Spanish
Default : Yes
Forced : No

Audio #1
ID : 2
Format : AC-3
Format/Info : Audio Coding 3
Commercial name : Dolby Digital
Codec ID : A_AC3
Duration : 1 h 43 min
Bit rate mode : Constant
Bit rate : 256 kb/s
Channel(s) : 2 channels
Channel layout : L R
Sampling rate : 48.0 kHz
Frame rate : 31.250 FPS (1536 SPF)
Compression mode : Lossy
Stream size : 189 MiB (7%)
Title : LakeFilms
Language : Russian
Service kind : Complete Main
Default : Yes
Forced : No

Audio #2
ID : 3
Format : AC-3
Format/Info : Audio Coding 3
Commercial name : Dolby Digital
Codec ID : A_AC3
Duration : 1 h 43 min
Bit rate mode : Constant
Bit rate : 448 kb/s
Channel(s) : 6 channels
Channel layout : L R C LFE Ls Rs
Sampling rate : 48.0 kHz
Frame rate : 31.250 FPS (1536 SPF)
Compression mode : Lossy
Stream size : 332 MiB (12%)
Title : VO [zamez]
Language : Russian
Service kind : Complete Main
Default : No
Forced : No

Audio #3
ID : 4
Format : AC-3
Format/Info : Audio Coding 3
Commercial name : Dolby Digital
Codec ID : A_AC3
Duration : 1 h 43 min
Bit rate mode : Constant
Bit rate : 640 kb/s
Channel(s) : 6 channels
Channel layout : L R C LFE Ls Rs
Sampling rate : 48.0 kHz
Frame rate : 31.250 FPS (1536 SPF)
Compression mode : Lossy
Stream size : 474 MiB (17%)
Language : Spanish
Service kind : Complete Main
Default : No
Forced : No

Text
ID : 5
Format : UTF-8
Codec ID : S_TEXT/UTF8
Codec ID/Info : UTF-8 Plain Text
Duration : 1 h 37 min
Bit rate : 33 b/s
Count of elements : 514
Stream size : 23.7 KiB (0%)
Title : Антон Коляго
Language : Russian
Default : No
Forced : No

Menu
00:00:00.000 : :Глава 01
00:10:00.000 : :Глава 02
00:20:00.000 : :Глава 03
00:30:00.000 : :Глава 04
00:40:00.000 : :Глава 05
00:50:00.000 : :Глава 06
01:00:00.000 : :Глава 07
01:10:00.000 : :Глава 08
01:20:00.000 : :Глава 09
01:30:00.000 : :Глава 10
01:40:00.000 : :Глава 11
Скриншоты
 

Вложения

  • 14,8 KB Просмотры: 0
    Личеров 0
    Сидеров 0
    Файлов 1
    Объем 2,8 GB
Ваш e-mail не будет опубликован. Он потребуется для подтверждения Вашего поста.
Оформление текста Нажмите «Ввод», чтобы отправить ответ.

Привет!

Мы группа людей которые решили помочь другим в решении их проблем, а так же пользователям с поиском самых свежих и качественных инфопродуктов. За 4 с небольшим месяца мы создали этот форум на который заходят ежедневно тысячи человек и посещаемость постоянно растёт. Мы создали панель лицензирования для защиты PHP скриптов от воровства и SEO панель для мониторинга наших сайтов и выбора верной стратегии их развития. Мы надеемся что то что мы создали пригодится Вам и возможно Вы поможете нам развиваться и совершенствоваться вместе с Вами.

Статистика форума

Темы
380.770
Сообщения
420.536
Пользователи
51.176
Новый пользователь
Pavel21

Приложения форума для iOS и Android


У ркн там нет власти ;)
Приватные разговоры
Помощь Пользователи
    Вы не присоединились ни к одной комнате.