За последнюю неделю опубликовано 57 новых материалов.
Инструкция новичку Путеводитель по форуму Прокси для Telegram Показать подсказки , это бомба!

Скачать Обезьяны / Monos (2019) BDRip 720p от ExKinoRay | A бесплатно через торрент

  • Поучаствуй (в качестве покупателя) в любых пяти совместных покупках (кроме завершённых и "Моментальных") и получи группу "Новичок" навсегда -> ссылка на раздел
  • Получай до 480 рублей за каждого приглашенного пользователя!
    представляем Вам очередное расширение партнерской программы, подробности описаны тут -> ссылка
  • 90% материалов доступно к скачиванию после простой регистрации!
    Если же ты хочешь скачивать материалы без требования оставлять отзывы то получи группу "Новичок", 10 способов повышения описаны тут -> ссылка
  • К сожалению количество битых ссылок растет и мы уже не можем их оперативно восстанавливать поэтому просим помощи у каждого нашего пользователя.
    С сегодняшнего дня, за каждую восстановленную ссылку мы заплатим Вам.
    Подробнее тут -> ссылка
  • Перенесем твои заслуги с другого ресурса!
    Мы понимаем как сложно прокачивать аккаунты на форумах, вроде раскачал аккаунт, а тут появляется ресурс в 100 раз круче но тоже с системой прокачки и снова качать аккаунт...
    Предлагаем вам перенести Ваши заслуги на другом подобном ресурсе к нам.
    Подробности описаны тут -> ссылка
  • Вы можете получать по 2.5% с каждой покупки и продажи на маркете! Подробности в теме Партнёрская программа
Если Вы не хотите скачивать, Вы всегда можетепосмотретьонлайн, просто нажмите кнопку ниже :

Открыть плеер

Torrent_Bot

Торрент-Бот
Бот форума
4 Окт 2016
92
163
20




Оригинальное название: Monos
Год выпуска: 2019
Жанр: Триллер, драма
Режиссер: Алехандро Ландес
В ролях: София Буэнавентура, Джулиан Хиральдо, Карен Кинтеро, Лаура Кастрильон, Дейби Руэда, Пол Кубидес, Снейдер Кастро, Мойзес Ариас, Джулианна Николсон, Уилсон Салазар


Описание: Сюжет картины переносит нас в северную Колумбию, где происходят по-настоящему ужасные события. Группа молодых людей стараются выжить в непростых условиях. Однажды ребята решают захватить заложника и потребовать за его жизнь выкуп. Героям кажется, что это просто веселая игра, и в их действиях совершенно нет ничего плохого. Постепенно вчерашние мальчики и девочки полностью теряют контроль над своим разумом и превращаются в жестоких зверей.




Страна: Колумбия, Аргентина, Нидерланды, Германия, Швеция, Уругвай, США, Швейцария, Дания
Студия: Stela Cine, Bord Cadre Films
Продолжительность: 01:42:35
Перевод: Авторский (одноголосый, закадровый) | zamez aka Вячеслав Замез

Формат: MKV
Качество: BDRip 720p
Видео: MPEG-4 AVC, 1280x536 (2.40:1), 24.000 fps, 5 696 kb/s, 0.346 bit/pixel
Аудио 1: 48 kHz, AC3, 5.1, 448 Kbps | AVO | RUS |
Аудио 2: 48 kHz, E-AC3, 5.1, 640 Kbps | Оригинал | SPA
Субтитры: Английские

*** Видеоряд без английского хардсаба.

ОтчетМедиаИнфо
General
Unique ID : 238236134642181713082308678470430278460 (0xB33A9C4D487172309AD2FA89C276C33C)
Complete name : C:Monos.2019.BDRip.720p.ExKinoRay.mkv
Format : Matroska
Format version : Version 2
File size : 4.96 GiB
Duration : 1 h 42 min
Overall bit rate : 6 922 kb/s
Movie name : Monos 2019 from ExKinoRay
Encoded date : UTC 2020-06-23 18:15:05
Writing application : mkvmerge v5.6.0 ('Kenya Kane') built on May 27 2012 16:44:04
Writing library : libebml v1.2.3 + libmatroska v1.3.0

Video
ID : 1
Format : AVC
Format/Info : Advanced Video Codec
Format profile : [email protected]
Format settings, CABAC : Yes
Format settings, ReFrames : 12 frames
Codec ID : V_MPEG4/ISO/AVC
Duration : 1 h 42 min
Bit rate : 5 696 kb/s
Width : 1 280 pixels
Height : 536 pixels
Display aspect ratio : 2.40:1
Frame rate mode : Constant
Frame rate : 24.000 FPS
Color space : YUV
Chroma subsampling : 4:2:0
Bit depth : 8 bits
Scan type : Progressive
Bits/(Pixel*Frame) : 0.346
Stream size : 4.08 GiB (82%)
Title : USURY
Writing library : x264 core 160 r3009 4c9b076
Encoding settings : cabac=1 / ref=12 / deblock=1:-3:-3 / analyse=0x3:0x133 / me=umh / subme=10 / psy=1 / psy_rd=1.00:0.15 / mixed_ref=1 / me_range=24 / chroma_me=1 / trellis=2 / 8x8dct=1 / cqm=0 / deadzone=21,11 / fast_pskip=1 / chroma_qp_offset=-3 / threads=17 / lookahead_threads=2 / sliced_threads=0 / nr=0 / decimate=1 / interlaced=0 / bluray_compat=0 / constrained_intra=0 / bframes=8 / b_pyramid=2 / b_adapt=2 / b_bias=0 / direct=3 / weightb=1 / open_gop=0 / weightp=2 / keyint=250 / keyint_min=24 / scenecut=40 / intra_refresh=0 / rc_lookahead=60 / rc=crf / mbtree=1 / crf=16.0 / qcomp=0.60 / qpmin=0 / qpmax=69 / qpstep=4 / ip_ratio=1.40 / aq=3:0.60
Language : English
Default : Yes
Forced : No

Audio #1
ID : 2
Format : AC-3
Format/Info : Audio Coding 3
Mode extension : CM (complete main)
Format settings, Endianness : Big
Codec ID : A_AC3
Duration : 1 h 42 min
Bit rate mode : Constant
Bit rate : 448 kb/s
Channel(s) : 6 channels
Channel positions : Front: L C R, Side: L R, LFE
Sampling rate : 48.0 kHz
Frame rate : 31.250 FPS (1536 spf)
Compression mode : Lossy
Stream size : 329 MiB (6%)
Title : AVO (zamez)
Language : Russian
Default : Yes
Forced : No

Audio #2
ID : 3
Format : AC-3
Format/Info : Audio Coding 3
Mode extension : CM (complete main)
Format settings, Endianness : Big
Codec ID : A_AC3
Duration : 1 h 42 min
Bit rate mode : Constant
Bit rate : 640 kb/s
Channel(s) : 6 channels
Channel positions : Front: L C R, Side: L R, LFE
Sampling rate : 48.0 kHz
Frame rate : 31.250 FPS (1536 spf)
Compression mode : Lossy
Stream size : 470 MiB (9%)
Language : Spanish
Default : No
Forced : No

Text
ID : 4
Format : UTF-8
Codec ID : S_TEXT/UTF8
Codec ID/Info : UTF-8 Plain Text
Title : English
Language : English
Default : No
Forced : Yes

Menu
00:00:00.000 : en:00:00:00.000
00:09:33.417 : en:00:09:33.417
00:21:33.708 : en:00:21:33.708
00:33:16.208 : en:00:33:16.208
00:47:25.875 : en:00:47:25.875
01:03:34.292 : en:01:03:34.292
01:16:23.125 : en:01:16:23.125
01:30:26.833 : en:01:30:26.833





Релиз от:

Автор релиза:
 

Вложения

  • 25,8 KB Просмотры: 0
    Личеров 0
    Сидеров 0
    Файлов 1
    Объем 5 GB

Привет!

Мы группа людей которые решили помочь другим в решении их проблем, а так же пользователям с поиском самых свежих и качественных инфопродуктов. За 4 с небольшим месяца мы создали этот форум на который заходят ежедневно тысячи человек и посещаемость постоянно растёт. Мы создали панель лицензирования для защиты PHP скриптов от воровства и SEO панель для мониторинга наших сайтов и выбора верной стратегии их развития. Мы надеемся что то что мы создали пригодится Вам и возможно Вы поможете нам развиваться и совершенствоваться вместе с Вами.

Статистика форума

Темы
406.698
Сообщения
465.162
Пользователи
84.789
Новый пользователь
Setis

Приложения форума для iOS и Android


У ркн там нет власти ;)
Приватные разговоры
Помощь Пользователи
    Вы не присоединились ни к одной комнате.