За последнюю неделю опубликовано 180 новых материалов.
Инструкция новичку Путеводитель по форуму Прокси для Telegram Показать подсказки , это бомба!

Скачать Нулевой отряд / Troop Zero (2019) WEB-DLRip 1080p | LakeFilms бесплатно через торрент

  • Поучаствуй (в качестве покупателя) в любых пяти совместных покупках (кроме завершённых и "Моментальных") и получи группу "Новичок" навсегда -> ссылка на раздел
  • Получай до 480 рублей за каждого приглашенного пользователя!
    представляем Вам очередное расширение партнерской программы, подробности описаны тут -> ссылка
  • 90% материалов доступно к скачиванию после простой регистрации!
    Если же ты хочешь скачивать материалы без требования оставлять отзывы то получи группу "Новичок", 10 способов повышения описаны тут -> ссылка
  • К сожалению количество битых ссылок растет и мы уже не можем их оперативно восстанавливать поэтому просим помощи у каждого нашего пользователя.
    С сегодняшнего дня, за каждую восстановленную ссылку мы заплатим Вам.
    Подробнее тут -> ссылка
  • Перенесем твои заслуги с другого ресурса!
    Мы понимаем как сложно прокачивать аккаунты на форумах, вроде раскачал аккаунт, а тут появляется ресурс в 100 раз круче но тоже с системой прокачки и снова качать аккаунт...
    Предлагаем вам перенести Ваши заслуги на другом подобном ресурсе к нам.
    Подробности описаны тут -> ссылка
  • Вы можете получать по 2.5% с каждой покупки и продажи на маркете! Подробности в теме Партнёрская программа
Если Вы не хотите скачивать, Вы всегда можетепосмотретьонлайн, просто нажмите кнопку ниже :

Открыть плеер

Torrent_Bot

Торрент-Бот
Бот форума
4 Окт 2016
124
94
20



Название: Нулевой отряд
Оригинальное название: Troop Zero
Год выпуска: 2019
Жанр:Драма, комедия, семейный
Выпущено: США, Amazon Studios, Big Indie Pictures, Escape Artists
Режиссер: Берт и Берти
В ролях: Маккенна Грэйс, Виола Дэвис, Джим Гэффиган, Эллисон Джэнни, Чарли Шотуэлл, Милан Рэй, Йоханна Колон, Белла Хиггинботам, Майк Эппс, Эшли Брук

О фильме: Фильм отправит зрителя в провинциальную Джорджию 1977 года и покажет приключения девочки-бунтарки по имени Кристмас Флинт, которая живет вдвоем с отцом и мечтает о путешествиях по открытому космосу. Поэтому когда она узнает о конкурсе талантов от NASA, то решает собрать свою команду девочек-скаутов, чтобы победить в нем. Таким образом одинокая Кристмас находит подруг на всю жизнь.



Техданные
Качество: WEB-DLRip (1080p)
Видео: MPEG-4 AVC, ~ 6 822 kb/s, 1920x800, 23.976 FPS
Аудио: AAC, 2 ch, 317 Кбит/с
Продолжительность: 01:38:00
Перевод: Любительский двухголосый закадровый (LakeFilms)
Присутствует реклама!

Скриншоты
MI
General
Unique ID : 248984331282928105277968990178331090665 (0xBB50A34F631E70EAEC4C464B49185EE9)
Complete name : E:Troop.Zero.2020.1080p.WEBDL.LakeFilms.mkv
Format : Matroska
Format version : Version 4 / Version 2
File size : 4.89 GiB
Duration : 1 h 38 min
Overall bit rate : 7 141 kb/s
Encoded date : UTC 2020-01-17 22:53:02
Writing application : mkvmerge v40.0.0 ('Old Town Road + Pony') 64-bit
Writing library : libebml v1.3.9 + libmatroska v1.5.2

Video
ID : 1
Format : AVC
Format/Info : Advanced Video Codec
Format profile : Main@L4.1
Format settings : CABAC / 4 Ref Frames
Format settings, CABAC : Yes
Format settings, RefFrames : 4 frames
Codec ID : V_MPEG4/ISO/AVC
Duration : 1 h 38 min
Bit rate : 6 822 kb/s
Width : 1 920 pixels
Height : 800 pixels
Display aspect ratio : 2.40:1
Frame rate mode : Constant
Frame rate : 23.976 (24000/1001) FPS
Color space : YUV
Chroma subsampling : 4:2:0
Bit depth : 8 bits
Scan type : Progressive
Bits/(Pixel*Frame) : 0.185
Stream size : 4.67 GiB (96%)
Language : English
Default : Yes
Forced : No
Color range : Limited
Color primaries : BT.709
Transfer characteristics : BT.709
Matrix coefficients : BT.709

Audio
ID : 2
Format : AAC
Format/Info : Advanced Audio Codec
Format profile : LC
Codec ID : A_AAC-2
Duration : 1 h 38 min
Bit rate : 317 kb/s
Channel(s) : 2 channels
Channel positions : Front: L R
Sampling rate : 48.0 kHz
Frame rate : 46.875 FPS (1024 SPF)
Compression mode : Lossy
Stream size : 222 MiB (4%)
Language : English
Default : Yes
Forced : No
 

Вложения

  • 13,2 KB Просмотры: 0
    Личеров 0
    Сидеров 0
    Файлов 1
    Объем 4,9 GB
Ваш e-mail не будет опубликован. Он потребуется для подтверждения Вашего поста.
Оформление текста Нажмите «Ввод», чтобы отправить ответ.

Привет!

Мы группа людей которые решили помочь другим в решении их проблем, а так же пользователям с поиском самых свежих и качественных инфопродуктов. За 4 с небольшим месяца мы создали этот форум на который заходят ежедневно тысячи человек и посещаемость постоянно растёт. Мы создали панель лицензирования для защиты PHP скриптов от воровства и SEO панель для мониторинга наших сайтов и выбора верной стратегии их развития. Мы надеемся что то что мы создали пригодится Вам и возможно Вы поможете нам развиваться и совершенствоваться вместе с Вами.

Статистика форума

Темы
378.719
Сообщения
417.957
Пользователи
49.510
Новый пользователь
иван баранов

Приложения форума для iOS и Android


У ркн там нет власти ;)
Приватные разговоры
Помощь Пользователи
    Вы не присоединились ни к одной комнате.