За последнюю неделю опубликовано 185 новых материалов.
Инструкция новичку Путеводитель по форуму Прокси для Telegram Показать подсказки , это бомба!

Скачать Новый год, я люблю тебя! (2019) WEB-DLRip от Files-x бесплатно через торрент

  • Поучаствуй (в качестве покупателя) в любых пяти совместных покупках (кроме завершённых и "Моментальных") и получи группу "Новичок" навсегда -> ссылка на раздел
  • Получай до 480 рублей за каждого приглашенного пользователя!
    представляем Вам очередное расширение партнерской программы, подробности описаны тут -> ссылка
  • 90% материалов доступно к скачиванию после простой регистрации!
    Если же ты хочешь скачивать материалы без требования оставлять отзывы то получи группу "Новичок", 10 способов повышения описаны тут -> ссылка
  • К сожалению количество битых ссылок растет и мы уже не можем их оперативно восстанавливать поэтому просим помощи у каждого нашего пользователя.
    С сегодняшнего дня, за каждую восстановленную ссылку мы заплатим Вам.
    Подробнее тут -> ссылка
  • Перенесем твои заслуги с другого ресурса!
    Мы понимаем как сложно прокачивать аккаунты на форумах, вроде раскачал аккаунт, а тут появляется ресурс в 100 раз круче но тоже с системой прокачки и снова качать аккаунт...
    Предлагаем вам перенести Ваши заслуги на другом подобном ресурсе к нам.
    Подробности описаны тут -> ссылка
  • Вы можете получать по 2.5% с каждой покупки и продажи на маркете! Подробности в теме Партнёрская программа
Если Вы не хотите скачивать, Вы всегда можетепосмотретьонлайн, просто нажмите кнопку ниже :

Открыть плеер

Torrent_Bot

Торрент-Бот
Бот форума
4 Окт 2016
124
96
20



Информация о фильме
Оригинальное название: Новый год, я люблю тебя!
Год выпуска: 2019
Жанр:Мелодрама, альманах
Режиссер: Павел Бардин, Михаил Местецкий, Михаил Сегал, Василий Сигарев, Клим Шипенко
В ролях: Таисия Вилкова, Максим Виторган, Михаил Горевой, Александр Горчилин, Степан Девонин, Фёдор Лавров, Пелагея, Андрей Смоляков, Ольга Сутулова, Альбина Тиханова, Регина Тодоренко, Влад Топалов, Яна Троянова

О фильме: Музыкальный киноальманах из восьми историй о событиях ушедшего года, праздничных чудесах, новых надеждах, творчестве и любви. Альманах «Новый год, я люблю тебя!» состоит из четырех художественных киноновелл и четырех музыкальных зарисовок. Герои фильма отправляются в путешествие по зимней Москве, пишут трогательные письма Деду Морозу и ждут новогодних чудес, которые происходят не только в ночь с 31 декабря на 1 января. В одной истории Ани Лорак и Валерий Меладзе показывают себя с неожиданной стороны, в другой – Пелагея оказывается в аэропорту, где слышит пронзительные истории любви, а в третьей – авторы вспоминают Олега Табакова, Иосифа Кобзона, Киру Муратову и других замечательных людей искусства. Несколько разных жанров выстраиваются в оригинальную конструкцию, чтобы создать ощущение яркого и доброго праздника.

Выпущено: Россия
Студия: Красный квадрат
Продолжительность: 00:50:22
Перевод: Не требуется

Файл
Качество: WEB-DLRip
Видео: XviD, ~ 1868 Кбит/с, 720x400
Аудио: AC3, 2 ch, 192 Кбит/с

Скриншоты
MediaInfo
General
Complete name : C:UsersuserDownloadsVideoNovyi.god.ya.lyublyu.tebya.2019.WEB-DLRip. Files-x.avi
Format : AVI
Format/Info : Audio Video Interleave
File size : 746 MiB
Duration : 50mn 22s
Overall bit rate : 2 069 Kbps
Writing application : VirtualDubMod 1.5.10.3 | www.virtualdub-fr.org || (build 2550/release)
Writing library : VirtualDubMod build 2550/release

Video
ID : 0
Format : MPEG-4 Visual
Format profile : Advanced Simple@L5
Format settings, BVOP : 1
Format settings, QPel : No
Format settings, GMC : No warppoints
Format settings, Matrix : Custom
Codec ID : XVID
Codec ID/Hint : XviD
Duration : 50mn 22s
Bit rate : 1 868 Kbps
Width : 720 pixels
Height : 400 pixels
Display aspect ratio : 16:9
Frame rate : 25.000 fps
Color space : YUV
Chroma subsampling : 4:2:0
Bit depth : 8 bits
Scan type : Progressive
Compression mode : Lossy
Bits/(Pixel*Frame) : 0.259
Stream size : 673 MiB (90%)
Writing library : XviD 73

Audio
ID : 1
Format : AC-3
Format/Info : Audio Coding 3
Mode extension : CM (complete main)
Codec ID : 2000
Duration : 50mn 22s
Bit rate mode : Constant
Bit rate : 192 Kbps
Channel(s) : 2 channels
Channel positions : Front: L R
Sampling rate : 48.0 KHz
Bit depth : 16 bits
Compression mode : Lossy
Stream size : 69.2 MiB (9%)
Alignment : Split accross interleaves
Interleave, duration : 40 ms (1.00 video frame)
Interleave, preload duration : 500 ms



Релиз от:
 

Вложения

  • 15,5 KB Просмотры: 0
    Личеров 0
    Сидеров 0
    Файлов 1
    Объем 745,6 MB
Ваш e-mail не будет опубликован. Он потребуется для подтверждения Вашего поста.
Оформление текста Нажмите «Ввод», чтобы отправить ответ.

Привет!

Мы группа людей которые решили помочь другим в решении их проблем, а так же пользователям с поиском самых свежих и качественных инфопродуктов. За 4 с небольшим месяца мы создали этот форум на который заходят ежедневно тысячи человек и посещаемость постоянно растёт. Мы создали панель лицензирования для защиты PHP скриптов от воровства и SEO панель для мониторинга наших сайтов и выбора верной стратегии их развития. Мы надеемся что то что мы создали пригодится Вам и возможно Вы поможете нам развиваться и совершенствоваться вместе с Вами.

Статистика форума

Темы
380.675
Сообщения
420.268
Пользователи
50.527
Новый пользователь
proct

Приложения форума для iOS и Android


У ркн там нет власти ;)
Приватные разговоры
Помощь Пользователи
    Вы не присоединились ни к одной комнате.