За последнюю неделю опубликовано 28 новых материалов.
Инструкция новичку Путеводитель по форуму Прокси для Telegram Показать подсказки , это бомба!

Скачать Нотр-Дам / Notre Dame (2019) BDRip-AVC от MediaBit | iTunes бесплатно через торрент

  • Поучаствуй (в качестве покупателя) в любых пяти совместных покупках (кроме завершённых и "Моментальных") и получи группу "Новичок" навсегда -> ссылка на раздел
  • Получай до 480 рублей за каждого приглашенного пользователя!
    представляем Вам очередное расширение партнерской программы, подробности описаны тут -> ссылка
  • 90% материалов доступно к скачиванию после простой регистрации!
    Если же ты хочешь скачивать материалы без требования оставлять отзывы то получи группу "Новичок", 10 способов повышения описаны тут -> ссылка
  • К сожалению количество битых ссылок растет и мы уже не можем их оперативно восстанавливать поэтому просим помощи у каждого нашего пользователя.
    С сегодняшнего дня, за каждую восстановленную ссылку мы заплатим Вам.
    Подробнее тут -> ссылка
  • Перенесем твои заслуги с другого ресурса!
    Мы понимаем как сложно прокачивать аккаунты на форумах, вроде раскачал аккаунт, а тут появляется ресурс в 100 раз круче но тоже с системой прокачки и снова качать аккаунт...
    Предлагаем вам перенести Ваши заслуги на другом подобном ресурсе к нам.
    Подробности описаны тут -> ссылка
  • Вы можете получать по 2.5% с каждой покупки и продажи на маркете! Подробности в теме Партнёрская программа
Если Вы не хотите скачивать, Вы всегда можетепосмотретьонлайн, просто нажмите кнопку ниже :

Открыть плеер

Torrent_Bot

Торрент-Бот
Бот форума
4 Окт 2016
93
160
20





Нотр-Дам / Notre Dame




Информация о фильме:

Название: Нотр-Дам
Оригинальное название: Notre Dame
Год выхода: 2019
Жанр: Комедия
Режиссер: Валери Донзелли

В ролях: Валери Донзелли, Пьер Деладоншам, Томас Шимека, Були Ланнерс, Виржини Ледуайен, Изабель Канделье, Филипп Катрин, Клод Перрон, Самир Гесми, Полин Серийе

Описание: Суматошный мир парижанки Мод почти полностью состоит из неудобных вопросов, прихотей бывшего мужа и придирок истеричного начальника. Несмотря на это, Мод успевает заботиться о двух детях и заниматься архитектурой - и случайно выигрывает конкурс на реставрацию площади великого собора Нотр-Дам. Эта забавная ошибка позволяет Мод не только заново построить свою карьеру, но и начать романтическое приключение в лучшем месте для любви - Париже.



Страна: Франция, Бельгия
Студия: Rectangle Productions, France 2 Cinéma, Scope Pictures
Продолжительность: 01:29:34
Перевод: Дублированный - iTunes



Информация о файле:
Кодек: AVC
Формат: MKV
Качество: BDRip-AVC
Видео: MPEG-4 AVC, 1024x554 (1.85:1), 2332 kbps, 24.000 fps, 0.171
Аудио RU: AC3, 6 ch, 48 kHz, 384 kbps
Навигация по главам: Есть



Трейлер

Скриншоты
MediaInfo
General
Unique ID : 174977712165637475855204697549317645528 (0x83A37B46998B5EB5C90DAF957054A4D8)
Complete name : D:uTorrentРипы_от_wolf1245_MediaBitNotre Dame 2019_wolf1245 & MediaBit.mkv
Format : Matroska
Format version : Version 4
File size : 1.70 GiB
Duration : 1 h 29 min
Overall bit rate : 2 712 kb/s
Movie name : Notre Dame 2019_wolf1245 & MediaBit
Encoded date : UTC 2020-09-01 16:38:19
Writing application : mkvmerge v49.0.0 ('Sick Of Losing Soulmates') 64-bit
Writing library : libebml v1.4.0 + libmatroska v1.6.1

Video
ID : 1
Format : AVC
Format/Info : Advanced Video Codec
Format profile : [email protected]
Format settings : CABAC / 11 Ref Frames
Format settings, CABAC : Yes
Format settings, Reference frames : 11 frames
Codec ID : V_MPEG4/ISO/AVC
Duration : 1 h 29 min
Bit rate : 2 332 kb/s
Width : 1 024 pixels
Height : 554 pixels
Display aspect ratio : 1.85:1
Frame rate mode : Constant
Frame rate : 24.000 FPS
Color space : YUV
Chroma subsampling : 4:2:0
Bit depth : 8 bits
Scan type : Progressive
Bits/(Pixel*Frame) : 0.171
Stream size : 1.46 GiB (86%)
Title : wolf1245 & MediaBit
Writing library : x264 core 157 r2958 57baac4
Encoding settings : cabac=1 / ref=11 / deblock=1:-3:-3 / analyse=0x3:0x133 / me=umh / subme=11 / psy=1 / psy_rd=1.00:0.15 / mixed_ref=1 / me_range=48 / chroma_me=1 / trellis=2 / 8x8dct=1 / cqm=0 / deadzone=21,11 / fast_pskip=0 / chroma_qp_offset=-3 / threads=10 / lookahead_threads=2 / sliced_threads=0 / nr=0 / decimate=0 / interlaced=0 / bluray_compat=0 / constrained_intra=0 / bframes=11 / b_pyramid=2 / b_adapt=2 / b_bias=4 / direct=3 / weightb=1 / open_gop=0 / weightp=2 / keyint=240 / keyint_min=24 / scenecut=40 / intra_refresh=0 / rc_lookahead=60 / rc=2pass / mbtree=0 / bitrate=2332 / ratetol=1.0 / qcomp=0.60 / qpmin=0 / qpmax=69 / qpstep=4 / cplxblur=20.0 / qblur=0.5 / vbv_maxrate=50000 / vbv_bufsize=62500 / nal_hrd=none / filler=0 / ip_ratio=1.40 / pb_ratio=1.30 / aq=1:1.00
Language : English
Default : Yes
Forced : No
Color range : Limited
Color primaries : BT.709
Transfer characteristics : BT.709
Matrix coefficients : BT.709

Audio
ID : 2
Format : AC-3
Format/Info : Audio Coding 3
Commercial name : Dolby Digital
Codec ID : A_AC3
Duration : 1 h 29 min
Bit rate mode : Constant
Bit rate : 384 kb/s
Channel(s) : 6 channels
Channel layout : L R C LFE Ls Rs
Sampling rate : 48.0 kHz
Frame rate : 31.250 FPS (1536 SPF)
Compression mode : Lossy
Stream size : 247 MiB (14%)
Title : DUB_iTunes
Language : Russian
Service kind : Complete Main
Default : Yes
Forced : No

Menu
00:00:00.000 : :Глава 1
00:08:01.916 : :Глава 2
00:16:04.791 : :Глава 3
00:24:11.124 : :Глава 4
00:32:33.124 : :Глава 5
00:41:07.915 : :Глава 6
00:49:58.456 : :Глава 7
00:58:42.539 : :Глава 8
01:07:11.664 : :Глава 9
01:15:36.455 : :Глава 10
01:23:19.080 : :Глава 11

Релиз от: &
 

Вложения

  • 18 KB Просмотры: 0
    Личеров 0
    Сидеров 0
    Файлов 1
    Объем 1,7 GB

Привет!

Мы группа людей которые решили помочь другим в решении их проблем, а так же пользователям с поиском самых свежих и качественных инфопродуктов. За 4 с небольшим месяца мы создали этот форум на который заходят ежедневно тысячи человек и посещаемость постоянно растёт. Мы создали панель лицензирования для защиты PHP скриптов от воровства и SEO панель для мониторинга наших сайтов и выбора верной стратегии их развития. Мы надеемся что то что мы создали пригодится Вам и возможно Вы поможете нам развиваться и совершенствоваться вместе с Вами.

Статистика форума

Темы
406.613
Сообщения
465.071
Пользователи
84.478
Новый пользователь
Кирилл23

Приложения форума для iOS и Android


У ркн там нет власти ;)
Приватные разговоры
Помощь Пользователи
    Вы не присоединились ни к одной комнате.