За последнюю неделю опубликовано 47 новых материалов.
Инструкция новичку Путеводитель по форуму Прокси для Telegram Показать подсказки , это бомба!

Скачать Norah Jones - Pick me up off the Floor [24bit Hi-Res] (2020) FLAC бесплатно через торрент

  • Поучаствуй (в качестве покупателя) в любых пяти совместных покупках (кроме завершённых и "Моментальных") и получи группу "Новичок" навсегда -> ссылка на раздел
  • Получай до 480 рублей за каждого приглашенного пользователя!
    представляем Вам очередное расширение партнерской программы, подробности описаны тут -> ссылка
  • 90% материалов доступно к скачиванию после простой регистрации!
    Если же ты хочешь скачивать материалы без требования оставлять отзывы то получи группу "Новичок", 10 способов повышения описаны тут -> ссылка
  • К сожалению количество битых ссылок растет и мы уже не можем их оперативно восстанавливать поэтому просим помощи у каждого нашего пользователя.
    С сегодняшнего дня, за каждую восстановленную ссылку мы заплатим Вам.
    Подробнее тут -> ссылка
  • Перенесем твои заслуги с другого ресурса!
    Мы понимаем как сложно прокачивать аккаунты на форумах, вроде раскачал аккаунт, а тут появляется ресурс в 100 раз круче но тоже с системой прокачки и снова качать аккаунт...
    Предлагаем вам перенести Ваши заслуги на другом подобном ресурсе к нам.
    Подробности описаны тут -> ссылка
  • Вы можете получать по 2.5% с каждой покупки и продажи на маркете! Подробности в теме Партнёрская программа

Torrent_Bot

Торрент-Бот
Бот форума
4 Окт 2016
93
160
20



Исполнитель: Norah Jones | Название: Pick me up off the Floor
Страна: USA | Жанр: Pop, Jazz, Smooth-Jazz, Vocal, Folk
Год: 2020 | Продолжительность: 00:45:30
Формат/Кодек: FLAC | Битрейт аудио: Lossless
Количество каналов: 2.0 | Разрядность: 24/96
Тип рипа: tracks


tracklist
01. How I Weep (04:42)
02. Flame Twin (03:21)
03. Hurts To Be Alone (03:26)
04. Heartbroken, Day After (04:12)
05. Say No More (04:58)
06. This Life (02:38)
07. To Live (04:29)
08. I'm Alive (04:17)
09. Were You Watching? (05:17)
10. Stumble On My Way (03:53)
11. Heaven Above (04:16)
DR
foobar2000 1.5 / Замер динамического диапазона (DR) 1.1.1
Дата отчёта: 2020-06-13 20:43:30

--------------------------------------------------------------------------------
Анализ: Norah Jones / Pick Me Up Off The Floor
--------------------------------------------------------------------------------

DR Пики RMS Продолжительность трека
--------------------------------------------------------------------------------
DR11 -0.20 дБ -12.94 дБ 4:42 01-How I Weep
DR7 -0.20 дБ -10.40 дБ 3:21 02-Flame Twin
DR9 -0.20 дБ -11.29 дБ 3:26 03-Hurts To Be Alone
DR7 -0.20 дБ -10.23 дБ 4:12 04-Heartbroken, Day After
DR8 -0.20 дБ -10.98 дБ 4:58 05-Say No More
DR9 -0.21 дБ -11.13 дБ 2:38 06-This Life
DR9 -0.20 дБ -10.89 дБ 4:29 07-To Live
DR8 -0.20 дБ -9.57 дБ 4:17 08-I'm Alive
DR9 -0.20 дБ -12.05 дБ 5:17 09-Were You Watching?
DR10 -0.20 дБ -12.51 дБ 3:53 10-Stumble On My Way
DR11 -0.20 дБ -14.30 дБ 4:16 11-Heaven Above
--------------------------------------------------------------------------------

Количество треков: 11
Реальные значения DR: DR9

Частота: 96000 Гц
Каналов: 2
Разрядность: 24
Битрейт: 2602 кбит/с
Кодек: FLAC
================================================================================
Дополнительная информация: Седьмой студийный альбом Норы Джонс вырос из ее знаменитой серии синглов, так как неизданные песни неожиданно превратились в альбом невероятной глубины и красоты. В «Pick Me Up Off The Floor» участвуют многие коллеги, от Брайана Блейда до Джеффа Твиди, связана хитрая мелодия ее фортепианных трио, лирика, которая противостоит потере предвещающей надежду, и настроение, которое склоняется к темноте, прежде чем в конечном итоге появится свет.
 

Вложения

  • 18,1 KB Просмотры: 0
    Личеров 0
    Сидеров 0
    Файлов 13
    Объем 847,8 MB

Привет!

Мы группа людей которые решили помочь другим в решении их проблем, а так же пользователям с поиском самых свежих и качественных инфопродуктов. За 4 с небольшим месяца мы создали этот форум на который заходят ежедневно тысячи человек и посещаемость постоянно растёт. Мы создали панель лицензирования для защиты PHP скриптов от воровства и SEO панель для мониторинга наших сайтов и выбора верной стратегии их развития. Мы надеемся что то что мы создали пригодится Вам и возможно Вы поможете нам развиваться и совершенствоваться вместе с Вами.

Статистика форума

Темы
406.640
Сообщения
465.115
Пользователи
84.582
Новый пользователь
mladshiy

Приложения форума для iOS и Android


У ркн там нет власти ;)
Приватные разговоры
Помощь Пользователи
    Вы не присоединились ни к одной комнате.