За последнюю неделю опубликовано 35 новых материалов.
Инструкция новичку Путеводитель по форуму Прокси для Telegram Показать подсказки , это бомба!

Скачать Ночной Проспект - Курорты Кавказа (2019) FLAC бесплатно через торрент

  • Поучаствуй (в качестве покупателя) в любых пяти совместных покупках (кроме завершённых и "Моментальных") и получи группу "Новичок" навсегда -> ссылка на раздел
  • Получай до 480 рублей за каждого приглашенного пользователя!
    представляем Вам очередное расширение партнерской программы, подробности описаны тут -> ссылка
  • 90% материалов доступно к скачиванию после простой регистрации!
    Если же ты хочешь скачивать материалы без требования оставлять отзывы то получи группу "Новичок", 10 способов повышения описаны тут -> ссылка
  • К сожалению количество битых ссылок растет и мы уже не можем их оперативно восстанавливать поэтому просим помощи у каждого нашего пользователя.
    С сегодняшнего дня, за каждую восстановленную ссылку мы заплатим Вам.
    Подробнее тут -> ссылка
  • Перенесем твои заслуги с другого ресурса!
    Мы понимаем как сложно прокачивать аккаунты на форумах, вроде раскачал аккаунт, а тут появляется ресурс в 100 раз круче но тоже с системой прокачки и снова качать аккаунт...
    Предлагаем вам перенести Ваши заслуги на другом подобном ресурсе к нам.
    Подробности описаны тут -> ссылка
  • Вы можете получать по 2.5% с каждой покупки и продажи на маркете! Подробности в теме Партнёрская программа

Torrent_Bot

Торрент-Бот
Бот форума
4 Окт 2016
93
160
20



Исполнитель: Ночной Проспект
Название: Курорты Кавказа
Страна: Россия
Жанр: Synth-Pop, Industrial, Experimental
Год: 2019
Продолжительность: 01:04:46
Битрейт аудио: Lossless
Формат/Кодек: FLAC
Тип рипа: tracks
За релиз спасибо: -Ruff-


1. A1 – From the depth (05:10)
2. A2 – Fishes (08:46)
3. B1 – This Night (07:40)
4. B2 – On the coast (06:28)
5. B3 – Sea walk (04:22)
6. C1 – Lukich on the beach (05:20)
7. C2 – Oriental sweets (04:11)
8. C3 – Heat (04:47)
9. D1 – Road to mountains (12:00)
10. D2 – Caves (06:02)
Лог проверки качества
AUDIOCHECKER v2.0 beta (build 457) - by Dester - [email protected]
~~~~~~~~~~~~~~~~~~~~~~~~~~~~~~~~~~

Started at: суббота, 15. 06. 2019. - 5:28.17
10 files found

01 -===- C:UsersUserDownloadsНочной Проспект - Курорты Кавказа (2019) FLACNotchnoi Prospekt - ГАР002- Ночной Проспект «Курорты Кавказа» - 01 A1 – From the depth.flac
Extracted successfully
Conclusion: this track is CDDA with probability 99%
Tempfile successfully deleted.

02 -===- C:UsersUserDownloadsНочной Проспект - Курорты Кавказа (2019) FLACNotchnoi Prospekt - ГАР002- Ночной Проспект «Курорты Кавказа» - 02 A2 – Fishes.flac
Extracted successfully
Conclusion: this track is CDDA with probability 99%
Tempfile successfully deleted.

03 -===- C:UsersUserDownloadsНочной Проспект - Курорты Кавказа (2019) FLACNotchnoi Prospekt - ГАР002- Ночной Проспект «Курорты Кавказа» - 03 B1 – This Night.flac
Extracted successfully
Conclusion: this track is CDDA with probability 100%
Tempfile successfully deleted.

04 -===- C:UsersUserDownloadsНочной Проспект - Курорты Кавказа (2019) FLACNotchnoi Prospekt - ГАР002- Ночной Проспект «Курорты Кавказа» - 04 B2 – On the coast.flac
Extracted successfully
Conclusion: this track is CDDA with probability 100%
Tempfile successfully deleted.

05 -===- C:UsersUserDownloadsНочной Проспект - Курорты Кавказа (2019) FLACNotchnoi Prospekt - ГАР002- Ночной Проспект «Курорты Кавказа» - 05 B3 – Sea walk.flac
Extracted successfully
Conclusion: this track is CDDA with probability 99%
Tempfile successfully deleted.

06 -===- C:UsersUserDownloadsНочной Проспект - Курорты Кавказа (2019) FLACNotchnoi Prospekt - ГАР002- Ночной Проспект «Курорты Кавказа» - 06 C1 – Lukich on the beach.flac
Extracted successfully
Conclusion: this track is CDDA with probability 100%
Tempfile successfully deleted.

07 -===- C:UsersUserDownloadsНочной Проспект - Курорты Кавказа (2019) FLACNotchnoi Prospekt - ГАР002- Ночной Проспект «Курорты Кавказа» - 07 C2 – Oriental sweets.flac
Extracted successfully
Conclusion: this track is CDDA with probability 100%
Tempfile successfully deleted.

08 -===- C:UsersUserDownloadsНочной Проспект - Курорты Кавказа (2019) FLACNotchnoi Prospekt - ГАР002- Ночной Проспект «Курорты Кавказа» - 08 C3 – Heat.flac
Extracted successfully
Conclusion: this track is CDDA with probability 100%
Tempfile successfully deleted.

09 -===- C:UsersUserDownloadsНочной Проспект - Курорты Кавказа (2019) FLACNotchnoi Prospekt - ГАР002- Ночной Проспект «Курорты Кавказа» - 09 D1 – Road to mountains.flac
Extracted successfully
Conclusion: this track is CDDA with probability 100%
Tempfile successfully deleted.

10 -===- C:UsersUserDownloadsНочной Проспект - Курорты Кавказа (2019) FLACNotchnoi Prospekt - ГАР002- Ночной Проспект «Курорты Кавказа» - 10 D2 – Caves.flac
Extracted successfully
Conclusion: this track is CDDA with probability 100%
Tempfile successfully deleted.


Finished at: суббота, 15. 06. 2019. - 5:31.08 (operation time: 0:02.51)
DR
foobar2000 1.4.4 / Замер динамического диапазона (DR) 1.1.1
Дата отчёта: 2019-06-15 05:27:58

--------------------------------------------------------------------------------
Анализ: Notchnoi Prospekt / ГАР002: Ночной Проспект «Курорты Кавказа»
--------------------------------------------------------------------------------

DR Пики RMS Продолжительность трека
--------------------------------------------------------------------------------
DR8 -0.30 дБ -10.24 дБ 5:10 01-A1 – From the depth
DR6 -0.30 дБ -9.97 дБ 8:46 02-A2 – Fishes
DR7 -0.30 дБ -9.70 дБ 7:40 03-B1 – This Night
DR8 -0.30 дБ -9.96 дБ 6:28 04-B2 – On the coast
DR7 -0.30 дБ -10.65 дБ 4:22 05-B3 – Sea walk
DR9 -0.30 дБ -11.03 дБ 5:20 06-C1 – Lukich on the beach
DR8 -0.30 дБ -10.31 дБ 4:11 07-C2 – Oriental sweets
DR9 -0.30 дБ -11.43 дБ 4:47 08-C3 – Heat
DR8 -0.30 дБ -11.24 дБ 12:00 09-D1 – Road to mountains
DR10 -0.82 дБ -13.54 дБ 6:02 10-D2 – Caves
--------------------------------------------------------------------------------

Количество треков: 10
Реальные значения DR: DR8

Частота: 44100 Гц
Каналов: 2
Разрядность: 16
Битрейт: 718 кбит/с
Кодек: FLAC
================================================================================
 

Вложения

  • 16 KB Просмотры: 1
    Личеров 0
    Сидеров 0
    Файлов 13
    Объем 344,7 MB

Привет!

Мы группа людей которые решили помочь другим в решении их проблем, а так же пользователям с поиском самых свежих и качественных инфопродуктов. За 4 с небольшим месяца мы создали этот форум на который заходят ежедневно тысячи человек и посещаемость постоянно растёт. Мы создали панель лицензирования для защиты PHP скриптов от воровства и SEO панель для мониторинга наших сайтов и выбора верной стратегии их развития. Мы надеемся что то что мы создали пригодится Вам и возможно Вы поможете нам развиваться и совершенствоваться вместе с Вами.

Статистика форума

Темы
406.609
Сообщения
465.049
Пользователи
84.416
Новый пользователь
erpe_13

Приложения форума для iOS и Android


У ркн там нет власти ;)
Приватные разговоры
Помощь Пользователи
    Вы не присоединились ни к одной комнате.