За последнюю неделю опубликовано 80 новых материалов.
Инструкция новичку Путеводитель по форуму Прокси для Telegram Показать подсказки , это бомба!

Скачать Ночная посылка / Overnight Delivery (1998) WEB-DL 1080p | P, P2 бесплатно через торрент

  • Поучаствуй (в качестве покупателя) в любых пяти совместных покупках (кроме завершённых и "Моментальных") и получи группу "Новичок" навсегда -> ссылка на раздел
  • Получай до 480 рублей за каждого приглашенного пользователя!
    представляем Вам очередное расширение партнерской программы, подробности описаны тут -> ссылка
  • 90% материалов доступно к скачиванию после простой регистрации!
    Если же ты хочешь скачивать материалы без требования оставлять отзывы то получи группу "Новичок", 10 способов повышения описаны тут -> ссылка
  • К сожалению количество битых ссылок растет и мы уже не можем их оперативно восстанавливать поэтому просим помощи у каждого нашего пользователя.
    С сегодняшнего дня, за каждую восстановленную ссылку мы заплатим Вам.
    Подробнее тут -> ссылка
  • Перенесем твои заслуги с другого ресурса!
    Мы понимаем как сложно прокачивать аккаунты на форумах, вроде раскачал аккаунт, а тут появляется ресурс в 100 раз круче но тоже с системой прокачки и снова качать аккаунт...
    Предлагаем вам перенести Ваши заслуги на другом подобном ресурсе к нам.
    Подробности описаны тут -> ссылка
  • Вы можете получать по 2.5% с каждой покупки и продажи на маркете! Подробности в теме Партнёрская программа
Если Вы не хотите скачивать, Вы всегда можетепосмотретьонлайн, просто нажмите кнопку ниже :

Открыть плеер

Torrent_Bot

Торрент-Бот
Бот форума
4 Окт 2016
104
152
20

Информация о фильме
Название: Ночная посылка
Оригинальное название: Overnight Delivery
Год выхода: 1998
Жанр: Комедия, мелодрама
Режиссер: Джейсон Блум
В ролях: Риз Уизерспун, Пол Радд, Кристин Тейлор, Сара Силверман, Ричард Коуди, Карл Энтони Пэйн, Тим МкНифф, Джон Бисли, Ларри Дрэйк

О фильме:
Кто из нас не совершал опрометчивые поступки, будучи всецело поглощенным жгучим чувством ревности? Услышав по телефону, что его девушка «ушла гулять с Рике-ром», Уайт первым делом напился. А так как она учится в другом колледже, он по совету случайной знакомой отправил прощальное письмо. В конверт срочной доставки он также вложил использованный презерватив и пару соответствующих фотографий. Утреннее сообщение на автоответчике гласило, что «Рикер» — это собака. Попробуй догони теперь эту ночную посылку.





Страна: США
Студия: New Line Cinema
Продолжительность: 01:27:55
Перевод:
№1 Профессиональный (многоголосый закадровый) - Студия Инис по заказу ТВ3
№2 Профессиональный (двухголосый закадровый) - НТВ

Файл
Кодек: x264
Качество: WEB-DL 1080p
Видео: MPEG-4 AVC, 10.9 Mбит/с, 1920x816
Звук №1: Русский | AC3, 2 ch, 192 Кбит/с | Профессиональный многоголосый
Звук №2: Русский | AC3, 2 ch, 192 Кбит/с | Профессиональный двухголосый
Звук №3: Английский | EAC3, 2 ch, 224 Кбит/с | Оригинал
Субтитры: Английские

Скриншоты
Инфо-файл
Формат : Matroska
Версия формата : Version 2
Размер файла : 7,23 Гбайт
Продолжительность : 1 ч. 28 м.
Режим общего битрейта : Переменный
Общий поток : 11,7 Мбит/сек
Название фильма : Overnight.Delivery.1998.1080p.AMZN.WEB-DL.by.zzZGVvv
Дата кодирования : UTC 2018-08-23 13:12:25
Программа кодирования : mkvmerge v5.8.0 ('No Sleep / Pillow') built on Sep 2 2012 15:37:04
Библиотека кодирования : libebml v1.2.3 + libmatroska v1.3.0
Attachements : cover.jpg

Видео
Идентификатор : 1
Формат : AVC
Формат/Информация : Advanced Video Codec
Профиль формата : High@L4
Параметр CABAC формата : Да
Параметр ReFrames формата : 4 кадра
Идентификатор кодека : V_MPEG4/ISO/AVC
Продолжительность : 1 ч. 28 м.
Вид битрейта : Переменный
Битрейт : 10,9 Мбит/сек
Максимальный битрейт : 15,0 Мбит/сек
Ширина : 1920 пикселей
Высота : 816 пикселей
Соотношение сторон : 2,35:1
Режим частоты кадров : Постоянный
Частота кадров : 23,976 кадра/сек
Цветовое пространство : YUV
Субдискретизация насыщенности : 4:2:0
Битовая глубина : 8 бит
Тип развёртки : Прогрессивная
Бит/(Пиксели*Кадры) : 0.290
Размер потока : 6,71 Гбайт (93%)
Заголовок : Overnight.Delivery.1998.1080p.AMZN.WEB-DL.DDP2.0
Библиотека кодирования : x264 core 148 r2623 d5b2374
Настройки программы : cabac=1 / ref=4 / deblock=1:-1:-1 / analyse=0x3:0x133 / me=umh / subme=9 / psy=1 / psy_rd=1.00:0.15 / mixed_ref=1 / me_range=24 / chroma_me=1 / trellis=2 / 8x8dct=1 / cqm=0 / deadzone=21,11 / fast_pskip=1 / chroma_qp_offset=-3 / threads=25 / lookahead_threads=4 / sliced_threads=0 / nr=150 / decimate=1 / interlaced=0 / bluray_compat=0 / constrained_intra=0 / bframes=8 / b_pyramid=2 / b_adapt=2 / b_bias=0 / direct=3 / weightb=1 / open_gop=0 / weightp=2 / keyint=120 / keyint_min=61 / scenecut=0 / intra_refresh=0 / rc_lookahead=120 / rc=crf / mbtree=1 / crf=18.0 / qcomp=0.60 / qpmin=0 / qpmax=69 / qpstep=4 / vbv_maxrate=15000 / vbv_bufsize=31250 / crf_max=0.0 / nal_hrd=vbr / filler=0 / ip_ratio=1.40 / aq=3:1.00
Язык : English
Default : Да
Forced : Нет
Цветовой диапазон : Limited
Основные цвета : BT.709
Характеристики трансфера : BT.709
Коэффициенты матрицы : BT.709

Аудио #1
Идентификатор : 2
Формат : AC-3
Формат/Информация : Audio Coding 3
Расширение режима : CM (complete main)
Параметр Endianness формата : Big
Идентификатор кодека : A_AC3
Продолжительность : 1 ч. 28 м.
Вид битрейта : Постоянный
Битрейт : 192 Кбит/сек
Каналы : 2 канала
Расположение каналов : Front: L R
Частота : 48,0 КГц
Метод сжатия : С потерями
Размер потока : 121 Мбайт (2%)
Заголовок : MVO
Язык : Russian
Default : Да
Forced : Нет

Аудио #2
Идентификатор : 3
Формат : AC-3
Формат/Информация : Audio Coding 3
Расширение режима : CM (complete main)
Параметр Endianness формата : Big
Идентификатор кодека : A_AC3
Продолжительность : 1 ч. 28 м.
Вид битрейта : Постоянный
Битрейт : 192 Кбит/сек
Каналы : 2 канала
Расположение каналов : Front: L R
Частота : 48,0 КГц
Метод сжатия : С потерями
Размер потока : 121 Мбайт (2%)
Заголовок : DVO
Default : Нет
Forced : Нет

Аудио #3
Идентификатор : 4
Формат : E-AC-3
Формат/Информация : Audio Coding 3
Параметр Endianness формата : Big
Идентификатор кодека : A_EAC3
Продолжительность : 1 ч. 28 м.
Вид битрейта : Постоянный
Битрейт : 224 Кбит/сек
Каналы : 2 канала
Расположение каналов : Front: L R
Частота : 48,0 КГц
Метод сжатия : С потерями
Размер потока : 141 Мбайт (2%)
Язык : English
Default : Нет
Forced : Нет

Текст #1
Идентификатор : 5
Формат : UTF-8
Идентификатор кодека : S_TEXT/UTF8
Идентификатор кодека/Информация : UTF-8 Plain Text
Язык : English
Default : Нет
Forced : Нет

Текст #2
Идентификатор : 6
Формат : UTF-8
Идентификатор кодека : S_TEXT/UTF8
Идентификатор кодека/Информация : UTF-8 Plain Text
Заголовок : SDH
Язык : English
Default : Нет
Forced : Нет

Меню
00:00:00.000 : en:Studio logo
00:00:19.000 : en:Opening credits
00:04:17.044 : en:Opening credits
00:05:54.044 : en:Wyatt's friends sow seeds of insecurity & infidelity in his mind, Wyatt's room
00:07:16.044 : en:Marita tells Wyatt about Kimberly cheating on him, Wyatt's room & Marita's room
00:08:32.044 : en:Wyatt drowns himself in sorrow & saves Ivy from an assault, Ground Zero
00:11:44.044 : en:Wyatt & Ivy are thrown out from the club & get acquainted with each other, parking lot
00:13:34.044 : en:Ivy insists Wyatt take revenge on Kimberly, cafe
00:14:59.044 : en:Ivy helps Wyatt plan to make Kimberly pay for her misdeed, multiple locations
00:18:40.044 : en:Wyatt panics when he finds out about Ricker & he struggles to terminate the package delivery, multiple locations
00:20:52.044 : en:Wyatt's spiteful classmate refuses to stop the package's delivery, Global Express
00:23:04.044 : en:Hal suspects Wyatt is the company's spy & refuses to offer any help, Global Express
00:24:55.044 : en:Ivy drives Wyatt to the airport, multiple locations
00:26:54.044 : en:Wyatt escapes an attack by Beezly & runs into Ivy, runway & road
00:30:49.044 : en:Ivy cons Hal & helps Wyatt to break into his loaded truck, gas station
00:33:38.044 : en:Ivy braves a car chase with Hal & still fails to retrieve the package, road
00:38:44.044 : en:Ivy offers to drop Wyatt off at the airport & gets offended by his remarks, multiple locations
00:43:54.044 : en:Airport officials refuse to let Wyatt to board the flight
00:46:25.044 : en:Wyatt fails to establish contact with Kimberly, road
00:49:26.044 : en:Ivy gets offended by Wyatt's comments & her anger leads to an accident, valley
00:54:49.044 : en:Wyatt & Ivy get into a heated argument, valley
00:56:41.044 : en:Wyatt apologizes to Ivy & they dine together, OK Corral
01:00:42.044 : en:Ivy cons the restaurant staff & makes an escape, Ok Corral & Officer's car
01:02:36.044 : en:Stanley tries to make Ivy realize her feelings for Wyatt, police station
01:04:41.044 : en:Wyatt makes one last attempt to stop his package's delivery, Cocktail Lounge
01:06:04.044 : en:Even the truck's explosion fails to stop Hal from delivering the parcel, Cocktail Lounge
01:08:44.044 : en:Wyatt & Ivy steal a drunk man's car, gas station
01:09:45.044 : en:Ivy is upset & wants to leave
01:14:00.044 : en:Wyatt continues chasing Hal, University of Memphis
01:17:12.044 : en:Wyatt stops Hal & calls off his relationship with Kimberly, Kimberly's room
01:20:15.044 : en:Wyatt asks Hal to deliver the package
01:23:36.044 : en:Closing credits
01:27:47.044 : en:Studio logo
 

Вложения

  • 37,2 KB Просмотры: 1
    Личеров 0
    Сидеров 0
    Файлов 1
    Объем 7,2 GB

Привет!

Мы группа людей которые решили помочь другим в решении их проблем, а так же пользователям с поиском самых свежих и качественных инфопродуктов. За 4 с небольшим месяца мы создали этот форум на который заходят ежедневно тысячи человек и посещаемость постоянно растёт. Мы создали панель лицензирования для защиты PHP скриптов от воровства и SEO панель для мониторинга наших сайтов и выбора верной стратегии их развития. Мы надеемся что то что мы создали пригодится Вам и возможно Вы поможете нам развиваться и совершенствоваться вместе с Вами.

Статистика форума

Темы
404.531
Сообщения
461.403
Пользователи
80.039
Новый пользователь
asuna

Приложения форума для iOS и Android


У ркн там нет власти ;)
Приватные разговоры
Помощь Пользователи
    Вы не присоединились ни к одной комнате.