За последнюю неделю опубликовано 66 новых материалов.
Инструкция новичку Путеводитель по форуму Прокси для Telegram Показать подсказки , это бомба!

Скачать Ночь святого Валентина (2016) HDTVRip от GeneralFilm бесплатно через торрент

  • Поучаствуй (в качестве покупателя) в любых пяти совместных покупках (кроме завершённых и "Моментальных") и получи группу "Новичок" навсегда -> ссылка на раздел
  • Получай до 480 рублей за каждого приглашенного пользователя!
    представляем Вам очередное расширение партнерской программы, подробности описаны тут -> ссылка
  • 90% материалов доступно к скачиванию после простой регистрации!
    Если же ты хочешь скачивать материалы без требования оставлять отзывы то получи группу "Новичок", 10 способов повышения описаны тут -> ссылка
  • К сожалению количество битых ссылок растет и мы уже не можем их оперативно восстанавливать поэтому просим помощи у каждого нашего пользователя.
    С сегодняшнего дня, за каждую восстановленную ссылку мы заплатим Вам.
    Подробнее тут -> ссылка
  • Перенесем твои заслуги с другого ресурса!
    Мы понимаем как сложно прокачивать аккаунты на форумах, вроде раскачал аккаунт, а тут появляется ресурс в 100 раз круче но тоже с системой прокачки и снова качать аккаунт...
    Предлагаем вам перенести Ваши заслуги на другом подобном ресурсе к нам.
    Подробности описаны тут -> ссылка
  • Вы можете получать по 2.5% с каждой покупки и продажи на маркете! Подробности в теме Партнёрская программа
Если Вы не хотите скачивать, Вы всегда можетепосмотретьонлайн, просто нажмите кнопку ниже :

Открыть плеер

Torrent_Bot

Торрент-Бот
Бот форума
4 Окт 2016
102
157
20
Информация о фильме
Название: Ночь святого Валентина
Год выпуска: 2016
Жанр:Комедия
Режиссер: Владимир Лерт
В ролях: Кирилл Кяро, Даша Астафьева, Олег Собчук, Виктор Андриенко, Елена Турбал, Андрей Джеджула, Наталия Денисенко, Валентина Войтенко, Константин Войтенко, Марк Дробот, Илья Прокопив, Роберт Фельдман, Екатерина Рубашкина

О фильме:
Все, что произошло в Ночь святого Валентина, теперь увидит вся страна! Пока все влюбленные пары мира одаривают друг друга нежными словами любви, наши герои принимают сюрпризы судьбы. Популярная рок-звезда отчаянно пытается дописать песню для фильма Гая Ричи и в творческих муках впервые за долгие годы встречает свою музу. Тем временем застенчивый гинеколог в перерывах между осмотром пациенток влюбляется в роковую красотку. Влюбленность ценой в собственную безопасность.
Ближе к полуночи город не спит. Студенты первого курса — тем более! В этот день они впервые устроили масштабную вечеринку, приуроченную к дню влюбленных. Их ночь могла быть идеальной, если бы на одном танцполе не повстречались ревнивый парень, завистливая бывшая и диджей, принявший удар безответной любви!



Страна: Украина
Студия: «Паноптикум, Tauras Films»
Продолжительность: 01:17:36
Перевод: Не требуется (русский)

Файл
Формат: avi
Качество: HDTVRip
Видео: XviD build 73, 720x304 (2.35:1), 25.000 fps, 1205 Kbps (0.220 bit/pixel)
Звук: 48.0 kHz, MP3 2 ch, 128 kbps

МедиаИнфо
General
Complete name : Noch.Svjatogo.Valentina.2016.XviD.HDTVRip.GeneralFilm.avi
Format : AVI
Format/Info : Audio Video Interleave
File size : 745 MiB
Duration : 1h 17mn
Overall bit rate : 1 342 Kbps
Writing application : VirtualDubMod 1.5.10.3 | www.virtualdub-fr.org || (build 2550/release)
Writing library : VirtualDubMod build 2550/release

Video
ID : 0
Format : MPEG-4 Visual
Format profile : Advanced Simple@L5
Format settings, BVOP : 1
Format settings, QPel : Yes
Format settings, GMC : No warppoints
Format settings, Matrix : Custom
Codec ID : XVID
Codec ID/Hint : XviD
Duration : 1h 17mn
Bit rate : 1 205 Kbps
Width : 720 pixels
Height : 304 pixels
Display aspect ratio : 2.35:1
Frame rate : 25.000 fps
Color space : YUV
Chroma subsampling : 4:2:0
Bit depth : 8 bits
Scan type : Progressive
Compression mode : Lossy
Bits/(Pixel*Frame) : 0.220
Stream size : 669 MiB (90%)
Writing library : XviD 73

Audio
ID : 1
Format : MPEG Audio
Format version : Version 1
Format profile : Layer 3
Codec ID : 55
Codec ID/Hint : MP3
Duration : 1h 17mn
Bit rate mode : Constant
Bit rate : 128 Kbps
Channel(s) : 2 channels
Sampling rate : 48.0 KHz
Compression mode : Lossy
Stream size : 71.0 MiB (10%)
Alignment : Aligned on interleaves
Interleave, duration : 40 ms (1.00 video frame)
Interleave, preload duratio : 504 ms
Writing library : LAME3.99r
Encoding settings : -m s -V 4 -q 0 -lowpass 17 -b 128
Семпл Скриншоты
 

Вложения

  • 15,6 KB Просмотры: 0
    Личеров 0
    Сидеров 0
    Файлов 1
    Объем 745,1 MB

Привет!

Мы группа людей которые решили помочь другим в решении их проблем, а так же пользователям с поиском самых свежих и качественных инфопродуктов. За 4 с небольшим месяца мы создали этот форум на который заходят ежедневно тысячи человек и посещаемость постоянно растёт. Мы создали панель лицензирования для защиты PHP скриптов от воровства и SEO панель для мониторинга наших сайтов и выбора верной стратегии их развития. Мы надеемся что то что мы создали пригодится Вам и возможно Вы поможете нам развиваться и совершенствоваться вместе с Вами.

Статистика форума

Темы
405.452
Сообщения
462.488
Пользователи
80.549
Новый пользователь
Pi20

Приложения форума для iOS и Android


У ркн там нет власти ;)
Приватные разговоры
Помощь Пользователи
    Вы не присоединились ни к одной комнате.