За последнюю неделю опубликовано 47 новых материалов.
Инструкция новичку Путеводитель по форуму Прокси для Telegram Показать подсказки , это бомба!

Скачать Няньки (2012) DVD5 от New Team бесплатно через торрент

  • Поучаствуй (в качестве покупателя) в любых пяти совместных покупках (кроме завершённых и "Моментальных") и получи группу "Новичок" навсегда -> ссылка на раздел
  • Получай до 480 рублей за каждого приглашенного пользователя!
    представляем Вам очередное расширение партнерской программы, подробности описаны тут -> ссылка
  • 90% материалов доступно к скачиванию после простой регистрации!
    Если же ты хочешь скачивать материалы без требования оставлять отзывы то получи группу "Новичок", 10 способов повышения описаны тут -> ссылка
  • К сожалению количество битых ссылок растет и мы уже не можем их оперативно восстанавливать поэтому просим помощи у каждого нашего пользователя.
    С сегодняшнего дня, за каждую восстановленную ссылку мы заплатим Вам.
    Подробнее тут -> ссылка
  • Перенесем твои заслуги с другого ресурса!
    Мы понимаем как сложно прокачивать аккаунты на форумах, вроде раскачал аккаунт, а тут появляется ресурс в 100 раз круче но тоже с системой прокачки и снова качать аккаунт...
    Предлагаем вам перенести Ваши заслуги на другом подобном ресурсе к нам.
    Подробности описаны тут -> ссылка
  • Вы можете получать по 2.5% с каждой покупки и продажи на маркете! Подробности в теме Партнёрская программа
Если Вы не хотите скачивать, Вы всегда можетепосмотретьонлайн, просто нажмите кнопку ниже :

Открыть плеер

Torrent_Bot

Торрент-Бот
Бот форума
4 Окт 2016
90
166
20
Страна: Россия
Жанр: комедия, семейный
Год выпуска: 2012

Продолжительность: 00:22:14


Перевод: Не требуется

Режиссер: Ашот Кещян

В ролях: Николай Наумов(Дима), Арарат Кещян(Миша), Аглая Шиловская(Катя), Людмила Артемьева(Бабушка), Олеся Железняк(Валентина), Ангелина Добророднова(Даша), Глеб Сердюков(Паша), Илья Костюков(Саша), Дитер Брандекер(Гвидо), Микаэль Барал(Михаэль), Толга Сунгур, Михаил Галустян(араб)


Описание: Валентина - жесткая, хладнокровная владелица крупной туристической фирмы, которой предстоит решение сложной задачи в стране, где женщину, независимо от профессионализма, не может ждать успех в бизнесе - Турции. На помощь она вызывает работников своего уральского филиала Диму и Мишу - безынициативных лодырей, по несчастливой случайности оказавшихся единственными сотрудниками мужского пола.
Предполагаемый отпуск за границей оборачивается для безответственных весельчаков не только последним шансом доказать свою профпригодность и избежать позорного увольнения, но и представляет угрозу для здоровья и жизни: по роковому стечению обстоятельств Миша и Дима остаются один на один с тремя неуправляемыми детьми Валентины.
А, как известно, беда не приходит одна, поэтому, когда приезжает мама Валентины якобы присмотреть за внуками, задачи для молодых людей усложняются появлением практически еще одного ребенка, который требует за собой не меньшего присмотра, чем реальные дети. Теперь друзьям придется разбираться и с детьми, и с бабушкой, и с немецкими конкурентами, и все это - в попытках не провалить судьбоносную сделку. Смогут ли наши герои справиться с заданием и завоевать расположение Валентины и ее детей?






Качество: DVD5 | sample
Контейнер: MPEG-PS
Видео: MPEG-2 Video, 720x576 (16:9), 6116 kbps, 25 fps, 0,590 bpp
Аудио: AC3 / 2.0 / 48 kHz / 192 kbps / 16 bit
Навигация по главам: есть


Скриншоты
b4c2acb29a421dd1a946b6ad5e7fbfbd.jpegcbd7eeb6281d9279629cc7222692370a.jpeg6a60d90fcf7fbedbda122c42d68c33eb.jpegc71ed9508ca8237637e81c032dc2846e.jpeg
DVDInfo
Title:
Size: 4.36 Gb ( 4 570 302 KBytes ) - DVD-5
Enabled regions: 1, 2, 3, 4, 5, 6, 7, 8

VTS_01 :
Play Length: 00:00:05
Video: PAL 4:3 (720x576) VBR
Audio:
English (Dolby AC3, 6 ch)
Subtitles:
English
English

VTS_02 :
Play Length: 00:00:07
Video: PAL 16:9 (720x576) VBR, Auto Pan&Scan
Audio:
Not specified (Dolby AC3, 1 ch)

VTS_03 :
Play Length: 00:02:13
Video: PAL 16:9 (720x576) VBR, Auto Pan&Scan
Audio:
Not specified (Dolby AC3, 2 ch)
Not specified (Dolby AC3, 2 ch)
Not specified (Dolby AC3, 2 ch)
Subtitles:
Not specified

VTS_04 :
Play Length: 00:01:49
Video: PAL 16:9 (720x576) VBR, Auto Pan&Scan
Audio:
Not specified (Dolby AC3, 2 ch)
Not specified (Dolby AC3, 2 ch)
Not specified (Dolby AC3, 2 ch)
Subtitles:
Not specified

VTS_05 :
Play Length: 01:29:59
Video: PAL 16:9 (720x576) VBR, Auto Pan&Scan
Audio:
Russian (Dolby AC3, 2 ch)
Media Info
General
Complete name : E:DVDNYANKIVIDEO_TSVTS_05_1.VOB
Format : MPEG-PS
File size : 1 024 MiB
Duration : 22mn 14s
Overall bit rate mode : Variable
Overall bit rate : 6 437 Kbps

Video
ID : 224 (0xE0)
Format : MPEG Video
Format version : Version 2
Format profile : [email protected]
Format settings, BVOP : Yes
Format settings, Matrix : Default
Format settings, GOP : M=3, N=12
Duration : 22mn 14s
Bit rate mode : Variable
Bit rate : 6 117 Kbps
Maximum bit rate : 8 500 Kbps
Width : 720 pixels
Height : 576 pixels
Display aspect ratio : 16:9
Frame rate : 25.000 fps
Standard : PAL
Color space : YUV
Chroma subsampling : 4:2:0
Bit depth : 8 bits
Scan type : Progressive
Compression mode : Lossy
Bits/(Pixel*Frame) : 0.590
Stream size : 973 MiB (95%)

Audio
ID : 189 (0xBD)-128 (0x80)
Format : AC-3
Format/Info : Audio Coding 3
Mode extension : CM (complete main)
Muxing mode : DVD-Video
Duration : 22mn 14s
Bit rate mode : Constant
Bit rate : 192 Kbps
Channel(s) : 2 channels
Channel positions : Front: L R
Sampling rate : 48.0 KHz
Bit depth : 16 bits
Compression mode : Lossy
Stream size : 30.5 MiB (3%)

Menu
 

Вложения

Привет!

Мы группа людей которые решили помочь другим в решении их проблем, а так же пользователям с поиском самых свежих и качественных инфопродуктов. За 4 с небольшим месяца мы создали этот форум на который заходят ежедневно тысячи человек и посещаемость постоянно растёт. Мы создали панель лицензирования для защиты PHP скриптов от воровства и SEO панель для мониторинга наших сайтов и выбора верной стратегии их развития. Мы надеемся что то что мы создали пригодится Вам и возможно Вы поможете нам развиваться и совершенствоваться вместе с Вами.

Статистика форума

Темы
410.885
Сообщения
469.444
Пользователи
87.884
Новый пользователь
SOOOOOFFFFKKKKAAAAA

Приложения форума для iOS и Android


У ркн там нет власти ;)
Приватные разговоры
Помощь Пользователи
    Вы не присоединились ни к одной комнате.