За последнюю неделю опубликовано 60 новых материалов.
Инструкция новичку Путеводитель по форуму Прокси для Telegram Показать подсказки , это бомба!

Скачать Няня / The Turning (2020) BDRip-AVC от ExKinoRay | Лицензия бесплатно через торрент

  • Поучаствуй (в качестве покупателя) в любых пяти совместных покупках (кроме завершённых и "Моментальных") и получи группу "Новичок" навсегда -> ссылка на раздел
  • Получай до 480 рублей за каждого приглашенного пользователя!
    представляем Вам очередное расширение партнерской программы, подробности описаны тут -> ссылка
  • 90% материалов доступно к скачиванию после простой регистрации!
    Если же ты хочешь скачивать материалы без требования оставлять отзывы то получи группу "Новичок", 10 способов повышения описаны тут -> ссылка
  • К сожалению количество битых ссылок растет и мы уже не можем их оперативно восстанавливать поэтому просим помощи у каждого нашего пользователя.
    С сегодняшнего дня, за каждую восстановленную ссылку мы заплатим Вам.
    Подробнее тут -> ссылка
  • Перенесем твои заслуги с другого ресурса!
    Мы понимаем как сложно прокачивать аккаунты на форумах, вроде раскачал аккаунт, а тут появляется ресурс в 100 раз круче но тоже с системой прокачки и снова качать аккаунт...
    Предлагаем вам перенести Ваши заслуги на другом подобном ресурсе к нам.
    Подробности описаны тут -> ссылка
  • Вы можете получать по 2.5% с каждой покупки и продажи на маркете! Подробности в теме Партнёрская программа
Если Вы не хотите скачивать, Вы всегда можетепосмотретьонлайн, просто нажмите кнопку ниже :

Открыть плеер

Torrent_Bot

Торрент-Бот
Бот форума
4 Окт 2016
92
163
20





Название: Няня
Оригинальное название: The Turning
Год выхода: 2020
Жанр: Ужасы, драма
Режиссер: Флория Сиджизмонди
В ролях: Маккензи Дэвис, Финн Вулфард, Бруклин Принс, Барбара Мартен, Джоэли Ричардсон, Ниал Грег Фултон, Денна Томсен, Ким Адис, Дарлин Гарр, Карен Иган, Марк Хубермэн

Описание: Начало 1990-х. Молодая учительница начальных классов по имени Кейт принимает заманчивое предложение и устраивается гувернанткой к 8-летней сиротке, предыдущая наставница которой, как ей сообщили, просто сбежала. На месте Кейт поражает шикарный особняк, в котором живёт маленькая Флора, и так же выясняется, что у девочки есть брат-подросток, которого на днях исключили из частной школы за драку. На этом сюрпризы не заканчиваются: строгая прислуга, пожилая миссис Гроз, запрещает Флоре покидать территорию поместья, а сама Кейт в первую же ночь начинает слышать странные звуки.




Страна: Великобритания, Ирландия, Канада, США
Студия: Amblin Entertainment, Amblin Partners, DreamWorks SKG, Reliance Entertainment, Vertigo Entertainment
Продолжительность: 01:34:29
Перевод: Дублированный | Лицензия

Формат: MKV
Качество: BDRip-AVC
Видео: MPEG-4 AVC, 720x302 (16:9), 23.976 fps, 1747 Kbps, 0.335 bit/pixel
Аудио : 48 kHz, AC3, 5.1, 448 Kbps | MVO | RUS |
Субтитры: Русские (2xRus), английские


ОтчетМедиаИнфо
General
Unique ID : 184032171356346023406429723016083066905 (0x8A734E9493460EBBB78AFA97E068D019)
Complete name : F:The.Turning.2020.BDRip.AVC.ExKinoRay.mkv
Format : Matroska
Format version : Version 2
File size : 1.45 GiB
Duration : 1 h 34 min
Overall bit rate : 2 197 kb/s
Movie name : The Turning 2020 from ExKinoRay
Encoded date : UTC 2020-07-19 00:36:18
Writing application : mkvmerge v5.6.0 ('Kenya Kane') built on May 27 2012 16:44:04
Writing library : libebml v1.2.3 + libmatroska v1.3.0
Attachments : poster.jpg

Video
ID : 1
Format : AVC
Format/Info : Advanced Video Codec
Format profile : [email protected]
Format settings, CABAC : Yes
Format settings, ReFrames : 12 frames
Codec ID : V_MPEG4/ISO/AVC
Duration : 1 h 34 min
Bit rate : 1 747 kb/s
Width : 720 pixels
Height : 302 pixels
Display aspect ratio : 2.40:1
Frame rate mode : Constant
Frame rate : 23.976 (24000/1001) FPS
Original frame rate : 23.976 (23976/1000) FPS
Color space : YUV
Chroma subsampling : 4:2:0
Bit depth : 8 bits
Scan type : Progressive
Bits/(Pixel*Frame) : 0.335
Stream size : 1.13 GiB (78%)
Title : Enigma
Writing library : x264 core 152 r2851 ba24899
Encoding settings : cabac=1 / ref=12 / deblock=1:-2:-2 / analyse=0x3:0x113 / me=umh / subme=10 / psy=1 / psy_rd=1.02:0.05 / mixed_ref=1 / me_range=32 / chroma_me=1 / trellis=2 / 8x8dct=1 / cqm=0 / deadzone=21,11 / fast_pskip=0 / chroma_qp_offset=-3 / threads=9 / lookahead_threads=1 / sliced_threads=0 / nr=0 / decimate=0 / interlaced=0 / bluray_compat=0 / constrained_intra=0 / bframes=9 / b_pyramid=2 / b_adapt=2 / b_bias=0 / direct=3 / weightb=1 / open_gop=0 / weightp=2 / keyint=240 / keyint_min=23 / scenecut=40 / intra_refresh=0 / rc=2pass / mbtree=0 / bitrate=1747 / ratetol=1.0 / qcomp=0.60 / qpmin=0 / qpmax=51 / qpstep=4 / cplxblur=20.0 / qblur=0.5 / ip_ratio=1.40 / pb_ratio=1.30 / aq=1:1.00
Default : Yes
Forced : No
Color range : Limited
Color primaries : BT.709
Transfer characteristics : BT.709
Matrix coefficients : BT.709

Audio
ID : 2
Format : AC-3
Format/Info : Audio Coding 3
Mode extension : CM (complete main)
Format settings, Endianness : Big
Codec ID : A_AC3
Duration : 1 h 34 min
Bit rate mode : Constant
Bit rate : 448 kb/s
Channel(s) : 6 channels
Channel positions : Front: L C R, Side: L R, LFE
Sampling rate : 48.0 kHz
Frame rate : 31.250 FPS (1536 spf)
Compression mode : Lossy
Stream size : 303 MiB (20%)
Title : Dub (Blu-Ray)
Language : Russian
Default : Yes
Forced : No

Text #1
ID : 3
Format : UTF-8
Codec ID : S_TEXT/UTF8
Codec ID/Info : UTF-8 Plain Text
Title : Full (FOCS)
Language : Russian
Default : No
Forced : No

Text #2
ID : 4
Format : UTF-8
Codec ID : S_TEXT/UTF8
Codec ID/Info : UTF-8 Plain Text
Language : Russian
Default : No
Forced : No

Text #3
ID : 5
Format : UTF-8
Codec ID : S_TEXT/UTF8
Codec ID/Info : UTF-8 Plain Text
Language : English
Default : No
Forced : No

Menu
00:00:00.000 : en:Chapter 01
00:05:49.349 : en:Chapter 02
00:11:20.972 : en:Chapter 03
00:14:29.952 : en:Chapter 04
00:17:44.647 : en:Chapter 05
00:20:37.403 : en:Chapter 06
00:26:15.199 : en:Chapter 07
00:31:37.813 : en:Chapter 08
00:37:42.469 : en:Chapter 09
00:41:23.231 : en:Chapter 10
00:45:45.201 : en:Chapter 11
00:50:57.930 : en:Chapter 12
00:55:29.910 : en:Chapter 13
00:59:09.504 : en:Chapter 14
01:03:34.561 : en:Chapter 15
01:10:32.895 : en:Chapter 16
01:15:20.766 : en:Chapter 17
01:20:00.504 : en:Chapter 18
01:25:31.126 : en:Chapter 19
01:29:56.683 : en:Chapter 20






Релиз от:

Автор релиза:
 

Вложения

  • 15,5 KB Просмотры: 0
    Личеров 0
    Сидеров 0
    Файлов 1
    Объем 1,5 GB

Привет!

Мы группа людей которые решили помочь другим в решении их проблем, а так же пользователям с поиском самых свежих и качественных инфопродуктов. За 4 с небольшим месяца мы создали этот форум на который заходят ежедневно тысячи человек и посещаемость постоянно растёт. Мы создали панель лицензирования для защиты PHP скриптов от воровства и SEO панель для мониторинга наших сайтов и выбора верной стратегии их развития. Мы надеемся что то что мы создали пригодится Вам и возможно Вы поможете нам развиваться и совершенствоваться вместе с Вами.

Статистика форума

Темы
406.695
Сообщения
465.154
Пользователи
84.762
Новый пользователь
Мирата

Приложения форума для iOS и Android


У ркн там нет власти ;)
Приватные разговоры
Помощь Пользователи
    Вы не присоединились ни к одной комнате.