За последнюю неделю опубликовано 47 новых материалов.
Инструкция новичку Путеводитель по форуму Прокси для Telegram Показать подсказки , это бомба!

Скачать Няня / The Turning (2020) BDRip-AVC | Лицензия бесплатно через торрент

  • Поучаствуй (в качестве покупателя) в любых пяти совместных покупках (кроме завершённых и "Моментальных") и получи группу "Новичок" навсегда -> ссылка на раздел
  • Получай до 480 рублей за каждого приглашенного пользователя!
    представляем Вам очередное расширение партнерской программы, подробности описаны тут -> ссылка
  • 90% материалов доступно к скачиванию после простой регистрации!
    Если же ты хочешь скачивать материалы без требования оставлять отзывы то получи группу "Новичок", 10 способов повышения описаны тут -> ссылка
  • К сожалению количество битых ссылок растет и мы уже не можем их оперативно восстанавливать поэтому просим помощи у каждого нашего пользователя.
    С сегодняшнего дня, за каждую восстановленную ссылку мы заплатим Вам.
    Подробнее тут -> ссылка
  • Перенесем твои заслуги с другого ресурса!
    Мы понимаем как сложно прокачивать аккаунты на форумах, вроде раскачал аккаунт, а тут появляется ресурс в 100 раз круче но тоже с системой прокачки и снова качать аккаунт...
    Предлагаем вам перенести Ваши заслуги на другом подобном ресурсе к нам.
    Подробности описаны тут -> ссылка
  • Вы можете получать по 2.5% с каждой покупки и продажи на маркете! Подробности в теме Партнёрская программа
Если Вы не хотите скачивать, Вы всегда можетепосмотретьонлайн, просто нажмите кнопку ниже :

Открыть плеер

Torrent_Bot

Торрент-Бот
Бот форума
4 Окт 2016
93
160
20


«Watch the Children With Care»

Информация о фильме
Название: Няня
Оригинальное название: The Turning
Год выхода: 2020
Жанр: Ужасы, драма
Режиссер: Флория Сиджизмонди
В ролях: Маккензи Дэвис, Финн Вулфард, Бруклин Принс, Барбара Мартен, Джоэли Ричардсон, Ниал Грег Фултон, Денна Томсен, Ким Адис, Дарлин Гарр, Карен Иган, Марк Хубермэн

О фильме:
Начало 1990-х. Молодая учительница начальных классов по имени Кейт принимает заманчивое предложение и устраивается гувернанткой к 8-летней сиротке, предыдущая наставница которой, как ей сообщили, просто сбежала. На месте Кейт поражает шикарный особняк, где живёт маленькая Флора, и так же выясняется, что у девочки есть брат-подросток Майлз, которого на днях исключили из частной школы за драку. На этом сюрпризы не заканчиваются: строгая прислуга, пожилая миссис Гроз, запрещает Флоре покидать территорию поместья, а сама Кейт в первую же ночь слышит странные звуки.



Страна: Великобритания, Ирландия, Канада, США
Студия: Amblin Entertainment, Amblin Partners, DreamWorks SKG, Reliance Entertainment, Vertigo Entertainment
Продолжительность: 01:34:29
Перевод:
• Профессиональный (полное дублирование) | Лицензия Blu-ray EUR

Файл
Качество: BDRip-AVC
Исходник: The.Turning.2020.1080p.BluRay.REMUX.AVC.TrueHD.7.1-PHMHD
Формат: MKV
Кодек: MPEG-4 AVC
Видео: 1024x428 (2,40:1), 23,976 fps, MPEG-4 AVC ~ 2403 Kbps avg, 0.229 bit/pixel
Аудио: AC3, 48 kHz, 6 ch, ~448.00 kbps avg | русский | Blu-ray EUR
Аудио: AC3, 48 kHz, 6 ch, ~448.00 kbps avg | английский |
Субтитры: Русские (2 x Full), английские (Full, SDH)


Инфо-файл
Общее
Уникальный идентификатор : 313918828438455013930534182438614697137 (0xEC2A9132AFA205C5A74C6C6C814984B1)
Полное имя : The.Turning.2020.Lic.BDRip.2.18Gb.x264.mkv
Формат : Matroska
Версия формата : Version 4
Размер файла : 2,18 Гбайт
Продолжительность : 1 ч. 34 м.
Общий поток : 3 301 Кбит/сек
Название фильма : Няня / The Turning (2020)
Дата кодирования : UTC 2020-07-12 09:47:30
Программа кодирования : mkvmerge v47.0.0 ('Black Flag') 64-bit
Библиотека кодирования : libebml v1.3.10 + libmatroska v1.5.2
Обложка : Yes
Attachments : cover.jpg

Видео
Идентификатор : 1
Формат : AVC
Формат/Информация : Advanced Video Codec
Профиль формата : [email protected]
Настройки формата : CABAC / 10 Ref Frames
Параметр CABAC формата : Да
Параметр RefFrames формата : 10 кадров
Идентификатор кодека : V_MPEG4/ISO/AVC
Продолжительность : 1 ч. 34 м.
Битрейт : 2 403 Кбит/сек
Ширина : 1 024 пикселя
Высота : 428 пикселей
Соотношение сторон : 2,40:1
Режим частоты кадров : Постоянный
Частота кадров : 23,976 (24000/1001) кадра/сек
Цветовое пространство : YUV
Субдискретизация насыщенности : 4:2:0
Битовая глубина : 8 бит
Тип развёртки : Прогрессивная
Бит/(Пиксели*Кадры) : 0.229
Размер потока : 1,59 Гбайт (73%)
Заголовок : #stillet
Библиотека кодирования : x264 core 152 r2851bm ba24899
Настройки программы : cabac=1 / ref=10 / deblock=1:-2:-2 / analyse=0x3:0x113 / me=umh / subme=10 / psy=1 / psy_rd=1.00:0.15 / mixed_ref=1 / me_range=32 / chroma_me=1 / trellis=2 / 8x8dct=1 / cqm=0 / deadzone=21,11 / fast_pskip=0 / chroma_qp_offset=-3 / threads=12 / lookahead_threads=3 / sliced_threads=0 / nr=0 / decimate=0 / interlaced=0 / bluray_compat=0 / constrained_intra=0 / bframes=11 / b_pyramid=2 / b_adapt=2 / b_bias=0 / direct=3 / weightb=1 / open_gop=0 / weightp=2 / keyint=240 / keyint_min=23 / scenecut=40 / intra_refresh=0 / rc=2pass / mbtree=0 / bitrate=2403 / ratetol=1.0 / qcomp=0.60 / qpmin=0 / qpmax=69 / qpstep=4 / cplxblur=20.0 / qblur=0.5 / ip_ratio=1.40 / pb_ratio=1.30 / aq=1:1.00
Язык : English
Default : Да
Forced : Нет

Аудио #1
Идентификатор : 2
Формат : AC-3
Формат/Информация : Audio Coding 3
Коммерческое название : Dolby Digital
Идентификатор кодека : A_AC3
Продолжительность : 1 ч. 34 м.
Вид битрейта : Постоянный
Битрейт : 448 Кбит/сек
Каналы : 6 каналов
Channel layout : L R C LFE Ls Rs
Частота : 48,0 КГц
Частота кадров : 31,250 кадров/сек (1536 SPF)
Метод сжатия : С потерями
Размер потока : 303 Мбайт (14%)
Заголовок : Blu-ray EUR
Язык : Russian
Default : Да
Forced : Да

Аудио #2
Идентификатор : 3
Формат : AC-3
Формат/Информация : Audio Coding 3
Коммерческое название : Dolby Digital
Идентификатор кодека : A_AC3
Продолжительность : 1 ч. 34 м.
Вид битрейта : Постоянный
Битрейт : 448 Кбит/сек
Каналы : 6 каналов
Channel layout : L R C LFE Ls Rs
Частота : 48,0 КГц
Частота кадров : 31,250 кадров/сек (1536 SPF)
Метод сжатия : С потерями
Размер потока : 303 Мбайт (14%)
Язык : English
Default : Нет
Forced : Нет

Текст #1
Идентификатор : 4
Формат : UTF-8
Идентификатор кодека : S_TEXT/UTF8
Идентификатор кодека/Информация : UTF-8 Plain Text
Продолжительность : 1 ч. 29 м.
Битрейт : 57 бит/сек
Count of elements : 849
Размер потока : 38,0 Кбайт (0%)
Заголовок : Full | FOCS
Язык : Russian
Default : Нет
Forced : Нет

Текст #2
Идентификатор : 5
Формат : UTF-8
Идентификатор кодека : S_TEXT/UTF8
Идентификатор кодека/Информация : UTF-8 Plain Text
Продолжительность : 1 ч. 27 м.
Битрейт : 53 бит/сек
Count of elements : 938
Размер потока : 34,7 Кбайт (0%)
Заголовок : Full | v.2
Язык : Russian
Default : Нет
Forced : Нет

Текст #3
Идентификатор : 6
Формат : UTF-8
Идентификатор кодека : S_TEXT/UTF8
Идентификатор кодека/Информация : UTF-8 Plain Text
Продолжительность : 1 ч. 27 м.
Битрейт : 35 бит/сек
Count of elements : 862
Размер потока : 22,7 Кбайт (0%)
Заголовок : Full
Язык : English
Default : Нет
Forced : Нет

Текст #4
Идентификатор : 7
Формат : UTF-8
Идентификатор кодека : S_TEXT/UTF8
Идентификатор кодека/Информация : UTF-8 Plain Text
Продолжительность : 1 ч. 29 м.
Битрейт : 40 бит/сек
Count of elements : 1001
Размер потока : 26,1 Кбайт (0%)
Заголовок : SDH
Язык : English
Default : Нет
Forced : Нет

Меню
00:00:00.000 : en:Chapter 01
00:05:49.349 : en:Chapter 02
00:11:20.972 : en:Chapter 03
00:14:29.952 : en:Chapter 04
00:17:44.647 : en:Chapter 05
00:20:37.403 : en:Chapter 06
00:26:15.199 : en:Chapter 07
00:31:37.813 : en:Chapter 08
00:37:42.469 : en:Chapter 09
00:41:23.231 : en:Chapter 10
00:45:45.201 : en:Chapter 11
00:50:57.930 : en:Chapter 12
00:55:29.910 : en:Chapter 13
00:59:09.504 : en:Chapter 14
01:03:34.561 : en:Chapter 15
01:10:32.895 : en:Chapter 16
01:15:20.766 : en:Chapter 17
01:20:00.504 : en:Chapter 18
01:25:31.126 : en:Chapter 19
01:29:56.683 : en:Chapter 20
Скриншоты
 

Вложения

  • 11,8 KB Просмотры: 0
    Личеров 0
    Сидеров 0
    Файлов 1
    Объем 2,2 GB

Привет!

Мы группа людей которые решили помочь другим в решении их проблем, а так же пользователям с поиском самых свежих и качественных инфопродуктов. За 4 с небольшим месяца мы создали этот форум на который заходят ежедневно тысячи человек и посещаемость постоянно растёт. Мы создали панель лицензирования для защиты PHP скриптов от воровства и SEO панель для мониторинга наших сайтов и выбора верной стратегии их развития. Мы надеемся что то что мы создали пригодится Вам и возможно Вы поможете нам развиваться и совершенствоваться вместе с Вами.

Статистика форума

Темы
406.640
Сообщения
465.115
Пользователи
84.582
Новый пользователь
mladshiy

Приложения форума для iOS и Android


У ркн там нет власти ;)
Приватные разговоры
Помощь Пользователи
    Вы не присоединились ни к одной комнате.