За последнюю неделю опубликовано 122 новых материалов.
Инструкция новичку Путеводитель по форуму Прокси для Telegram Показать подсказки , это бомба!

Скачать Ничего себе каникулы! / Premières vacances (2018) HDRip-AVC от ExKinoRay | iTunes бесплатно через торрент

  • Поучаствуй (в качестве покупателя) в любых пяти совместных покупках (кроме завершённых и "Моментальных") и получи группу "Новичок" навсегда -> ссылка на раздел
  • Получай до 480 рублей за каждого приглашенного пользователя!
    представляем Вам очередное расширение партнерской программы, подробности описаны тут -> ссылка
  • 90% материалов доступно к скачиванию после простой регистрации!
    Если же ты хочешь скачивать материалы без требования оставлять отзывы то получи группу "Новичок", 10 способов повышения описаны тут -> ссылка
  • К сожалению количество битых ссылок растет и мы уже не можем их оперативно восстанавливать поэтому просим помощи у каждого нашего пользователя.
    С сегодняшнего дня, за каждую восстановленную ссылку мы заплатим Вам.
    Подробнее тут -> ссылка
  • Перенесем твои заслуги с другого ресурса!
    Мы понимаем как сложно прокачивать аккаунты на форумах, вроде раскачал аккаунт, а тут появляется ресурс в 100 раз круче но тоже с системой прокачки и снова качать аккаунт...
    Предлагаем вам перенести Ваши заслуги на другом подобном ресурсе к нам.
    Подробности описаны тут -> ссылка
  • Вы можете получать по 2.5% с каждой покупки и продажи на маркете! Подробности в теме Партнёрская программа
Если Вы не хотите скачивать, Вы всегда можетепосмотретьонлайн, просто нажмите кнопку ниже :

Открыть плеер

Torrent_Bot

Торрент-Бот
Бот форума
4 Окт 2016
124
96
20


Информация о фильме
Название: Ничего себе каникулы!
Оригинальное название: Premières vacances
Год выпуска: 2018
Жанр: Комедия
Режиссер: Патрик Кассир
В ролях: Камиль Шаму, Джонатан Коэн, Камилла Коттен, Жереми Элькайм, Венсан Дедьен, Доминик Валадье, Светлана Гергова, Александр Алексиев, Эллора Торчия, Юлиан Вергов, Каролин Англад, Эмили Кан, Зоэ Брюно, Жан-Шарль Клише

О фильме:
Марион — развязная и свободная, ей за тридцать, она самодостаточна и не слишком разборчива в связях. Знакомиться с парнями в Tinder для нее привычное дело. Бен — серьезный мужчина, слово «рутина» ему хорошо знакомо, и он не слишком опытен в плане знакомств по интернету. Возраст, город Париж и приложение Tinder в телефонах — больше ничего общего между ними нет. Но происходит Match, и эти двое влюбляются друг в друга на первом же свидании. Обезумев от спонтанной радости, они тут же решают отправиться в совместный отпуск. В Болгарию. Дикарями. Как скоро они обнаружат, что их представления об идеальных каникулах, мягко говоря, не совпадают?



Страна: Франция
Студия: C8, C8 Films, Canal+ [fr], Ciné, Le Pacte, NJJ Entertainment, The Film
Продолжительность: 01:41:41
Перевод: Профессиональный (многоголосый, закадровый) | iTunes

Файл
Формат: MKV
Качество: HDRip-AVC
Видео: MPEG-4 AVC, 784x328, - 947 Кбит/с
Аудио: AAC-HE, 2 ch, - 76 Кбит/с
Субтитры: Нет

MI
Общее
Уникальный идентификатор : 87032106603356377182731954035154326262 (0x4179C6265FE8BB9E6CE73507D80192F6)
Полное имя : D:MOVIESPremieres.vacances.2018.HDRip-AVC.ExKinoRay.mkv
Формат : Matroska
Версия формата : Version 4 / Version 2
Размер файла : 745 Мбайт
Продолжительность : 1 ч. 41 м.
Общий поток : 1024 Кбит/сек
Дата кодирования : UTC 2020-01-21 17:31:29
Программа кодирования : mkvmerge v35.0.0 ('All The Love In The World') 64-bit
Библиотека кодирования : libebml v1.3.9 + libmatroska v1.5.2

Видео
Идентификатор : 1
Формат : AVC
Формат/Информация : Advanced Video Codec
Профиль формата : High@L4.1
Параметр CABAC формата : Да
Параметр RefFrames формата : 12 кадров
Идентификатор кодека : V_MPEG4/ISO/AVC
Продолжительность : 1 ч. 41 м.
Битрейт : 947 Кбит/сек
Ширина : 784 пикселя
Высота : 328 пикселей
Соотношение сторон : 2,40:1
Режим частоты кадров : Постоянный
Частота кадров : 23,976 (24000/1001) кадра/сек
Цветовое пространство : YUV
Субдискретизация насыщенности : 4:2:0
Битовая глубина : 8 бит
Тип развёртки : Прогрессивная
Бит/(Пиксели*Кадры) : 0.154
Размер потока : 688 Мбайт (92%)
Библиотека кодирования : x264 core 159 r2991 1771b55
Настройки программы : cabac=1 / ref=12 / deblock=1:-3:-3 / analyse=0x3:0x133 / me=umh / subme=10 / psy=1 / psy_rd=1.00:0.10 / mixed_ref=1 / me_range=32 / chroma_me=1 / trellis=2 / 8x8dct=1 / cqm=0 / deadzone=21,11 / fast_pskip=0 / chroma_qp_offset=-3 / threads=6 / lookahead_threads=1 / sliced_threads=0 / nr=0 / decimate=0 / interlaced=0 / bluray_compat=0 / constrained_intra=0 / bframes=12 / b_pyramid=2 / b_adapt=2 / b_bias=0 / direct=3 / weightb=1 / open_gop=0 / weightp=2 / keyint=240 / keyint_min=23 / scenecut=40 / intra_refresh=0 / rc_lookahead=40 / rc=2pass / mbtree=1 / bitrate=947 / ratetol=1.0 / qcomp=0.70 / qpmin=0 / qpmax=69 / qpstep=4 / cplxblur=20.0 / qblur=0.5 / ip_ratio=1.40 / aq=3:1.00
Default : Да
Forced : Нет

Аудио
Идентификатор : 2
Формат : AAC
Формат/Информация : Advanced Audio Codec
Профиль формата : HE-AAC / LC
Идентификатор кодека : A_AAC
Продолжительность : 1 ч. 41 м.
Битрейт : 76,0 Кбит/сек
Каналы : 2 канала
Расположение каналов : Front: L R
Частота : 48,0 КГц / 24,0 КГц
Частота кадров : 23,438 кадра/сек (1024 SPF)
Метод сжатия : С потерями
Задержка видео : 31 мс.
Размер потока : 55,3 Мбайт (7%)
Язык : Russian
Default : Да
Forced : Нет

Меню
00:00:00.000 : en:00:00:00.000
00:07:09.846 : en:00:07:09.846
00:14:32.705 : en:00:14:32.705
00:22:53.289 : en:00:22:53.289
00:33:53.114 : en:00:33:53.114
00:42:08.735 : en:00:42:08.735
00:52:28.562 : en:00:52:28.562
01:01:30.186 : en:01:01:30.186
01:12:36.394 : en:01:12:36.394
01:22:41.665 : en:01:22:41.665
01:30:25.337 : en:01:30:25.337
01:37:40.021 : en:01:37:40.021
Скриншоты

 

Вложения

  • 15,6 KB Просмотры: 0
    Личеров 0
    Сидеров 0
    Файлов 1
    Объем 744,6 MB
Ваш e-mail не будет опубликован. Он потребуется для подтверждения Вашего поста.
Оформление текста Нажмите «Ввод», чтобы отправить ответ.

Привет!

Мы группа людей которые решили помочь другим в решении их проблем, а так же пользователям с поиском самых свежих и качественных инфопродуктов. За 4 с небольшим месяца мы создали этот форум на который заходят ежедневно тысячи человек и посещаемость постоянно растёт. Мы создали панель лицензирования для защиты PHP скриптов от воровства и SEO панель для мониторинга наших сайтов и выбора верной стратегии их развития. Мы надеемся что то что мы создали пригодится Вам и возможно Вы поможете нам развиваться и совершенствоваться вместе с Вами.

Статистика форума

Темы
378.775
Сообщения
418.216
Пользователи
50.058
Новый пользователь
misterproger

Приложения форума для iOS и Android


У ркн там нет власти ;)
Приватные разговоры
Помощь Пользователи
    Вы не присоединились ни к одной комнате.