За последнюю неделю опубликовано 48 новых материалов.
Инструкция новичку Путеводитель по форуму Прокси для Telegram Показать подсказки , это бомба!

Скачать Ни за, ни против (а совсем наоборот) / Ni pour, ni contre (bien au contraire) (2003) DVDRip-AVC от ExKinoRay | P бесплатно через торрент

  • Поучаствуй (в качестве покупателя) в любых пяти совместных покупках (кроме завершённых и "Моментальных") и получи группу "Новичок" навсегда -> ссылка на раздел
  • Получай до 480 рублей за каждого приглашенного пользователя!
    представляем Вам очередное расширение партнерской программы, подробности описаны тут -> ссылка
  • 90% материалов доступно к скачиванию после простой регистрации!
    Если же ты хочешь скачивать материалы без требования оставлять отзывы то получи группу "Новичок", 10 способов повышения описаны тут -> ссылка
  • К сожалению количество битых ссылок растет и мы уже не можем их оперативно восстанавливать поэтому просим помощи у каждого нашего пользователя.
    С сегодняшнего дня, за каждую восстановленную ссылку мы заплатим Вам.
    Подробнее тут -> ссылка
  • Перенесем твои заслуги с другого ресурса!
    Мы понимаем как сложно прокачивать аккаунты на форумах, вроде раскачал аккаунт, а тут появляется ресурс в 100 раз круче но тоже с системой прокачки и снова качать аккаунт...
    Предлагаем вам перенести Ваши заслуги на другом подобном ресурсе к нам.
    Подробности описаны тут -> ссылка
  • Вы можете получать по 2.5% с каждой покупки и продажи на маркете! Подробности в теме Партнёрская программа
Если Вы не хотите скачивать, Вы всегда можетепосмотретьонлайн, просто нажмите кнопку ниже :

Открыть плеер

Torrent_Bot

Торрент-Бот
Бот форума
4 Окт 2016
93
160
20


Информация о фильме
Название: Ни за, ни против (а совсем наоборот)
Оригинальное название: Ni pour, ni contre (bien au contraire)
Год выхода: 2003
Жанр: Драма, криминал
Режиссер: Седрик Клапиш / Cédric Klapisch
В ролях: Мари Жиллен, Венсан Эльбаз, Симон Абкарян, Зинедин Суалем, Наташа Линдингер, Пьер-Анжи Ле Погам, Диана Крюгер, Михаэль Абитебуль, Робер Планьоль, Дидье Менен, Игорь Скреблин, Осин Шутри, Жак Галло, Франки Пен, Лоран Бесанкон, Набил Массад, Димитри Сторож, Тьерри Леваре, Камилль Натта, Тиффани Бровар, Эссе Лоусон, Клара Пирали, Тьерри Казалс

О фильме:
Кати работает оператором в теленовостях. И вот эта милая девушка договаривается с шайкой преступников, которым непонятно зачем понадобилось снять свое ограбление. На "отлично" выполнив порученную работу, Кати становится талисманом банды и вместе с ними разделяет все удовольствия их "сладкой жизни". Раздобыв кучу денег, они могут позволить себе пожить с шиком, как богачи: прекрасные отели, быстрые машины, ночные клубы. Кати не отстает от своих новых друзей, но деньги быстро кончаются, и банда планирует совершить очень дерзкое и рискованное ограбление, чтобы сорвать "большой куш". Но на этот раз Кати больше не будет сторонним наблюдателем, а примет участие в деле...



Страна: Франция
Студия: Ce Qui Me Meut Motion Pictures, M6 Films, TPS Star
Продолжительность: 01:48:32
Перевод: Профессиональный (многоголосый, закадровый)

Файл
Формат: MKV
Качество: DVDRip-AVC
Видео: MPEG-4 AVC, 752x318, - 883 Кбит/с
Аудио: AAC-HE, 2 ch, - 76 Кбит/с
Субтитры: Нет

MI
Общее
Уникальный идентификатор : 256945048288099589485982476547140158115 (0xC14DD0F627597E4DA837A814720502A3)
Полное имя : D:MOVIESNi.za-ni.protiv.2003.DVDRip-AVC.ExKinoRay.mkv
Формат : Matroska
Версия формата : Version 4
Размер файла : 746 Мбайт
Продолжительность : 1 ч. 48 м.
Общий поток : 961 Кбит/сек
Дата кодирования : UTC 2020-05-20 17:44:10
Программа кодирования : mkvmerge v45.0.0 ('Heaven in Pennies') 64-bit
Библиотека кодирования : libebml v1.3.10 + libmatroska v1.5.2

Видео
Идентификатор : 1
Формат : AVC
Формат/Информация : Advanced Video Codec
Профиль формата : [email protected]
Настройки формата : CABAC / 11 Ref Frames
Параметр CABAC формата : Да
Параметр RefFrames формата : 11 кадров
Идентификатор кодека : V_MPEG4/ISO/AVC
Продолжительность : 1 ч. 48 м.
Битрейт : 883 Кбит/сек
Ширина : 752 пикселя
Высота : 318 пикселей
Соотношение сторон : 2,35:1
Режим частоты кадров : Постоянный
Частота кадров : 25,000 кадров/сек
Цветовое пространство : YUV
Субдискретизация насыщенности : 4:2:0
Битовая глубина : 8 бит
Тип развёртки : Прогрессивная
Бит/(Пиксели*Кадры) : 0.148
Размер потока : 685 Мбайт (92%)
Библиотека кодирования : x264 core 160 r3000 33f9e14
Настройки программы : cabac=1 / ref=11 / deblock=1:-3:-2 / analyse=0x3:0x133 / me=umh / subme=10 / psy=1 / psy_rd=1.05:0.14 / mixed_ref=1 / me_range=32 / chroma_me=1 / trellis=2 / 8x8dct=1 / cqm=0 / deadzone=21,11 / fast_pskip=0 / chroma_qp_offset=-3 / threads=6 / lookahead_threads=1 / sliced_threads=0 / nr=0 / decimate=0 / interlaced=0 / bluray_compat=0 / constrained_intra=0 / bframes=14 / b_pyramid=2 / b_adapt=2 / b_bias=0 / direct=3 / weightb=1 / open_gop=0 / weightp=2 / keyint=250 / keyint_min=25 / scenecut=40 / intra_refresh=0 / rc=2pass / mbtree=0 / bitrate=883 / ratetol=1.0 / qcomp=0.60 / qpmin=0 / qpmax=69 / qpstep=4 / cplxblur=20.0 / qblur=0.5 / ip_ratio=1.40 / pb_ratio=1.30 / aq=1:1.00
Default : Да
Forced : Нет
Цветовой диапазон : Limited
Основные цвета : BT.601 PAL
Характеристики трансфера : BT.470 System B/G
Коэффициенты матрицы : BT.470 System B/G

Аудио
Идентификатор : 2
Формат : AAC LC SBR
Формат/Информация : Advanced Audio Codec Low Complexity with Spectral Band Replication
Коммерческое название : HE-AAC
Настройки формата : Explicit
Идентификатор кодека : A_AAC-2
Продолжительность : 1 ч. 48 м.
Битрейт : 76,0 Кбит/сек
Каналы : 2 канала
Channel layout : L R
Частота : 48,0 КГц
Частота кадров : 23,438 кадра/сек (2048 SPF)
Метод сжатия : С потерями
Задержка видео : 31 мс.
Размер потока : 59,0 Мбайт (8%)
Default : Да
Forced : Нет

Меню
00:00:00.000 : en:Chapter 01
00:03:29.040 : en:Chapter 02
00:05:58.280 : en:Chapter 03
00:15:44.320 : en:Chapter 04
00:18:31.760 : en:Chapter 05
00:21:50.920 : en:Chapter 06
00:29:32.680 : en:Chapter 07
00:35:49.160 : en:Chapter 08
00:40:36.720 : en:Chapter 09
00:44:21.880 : en:Chapter 10
00:51:01.240 : en:Chapter 11
00:54:04.800 : en:Chapter 12
00:57:35.400 : en:Chapter 13
01:04:50.120 : en:Chapter 14
01:10:18.240 : en:Chapter 15
01:16:05.080 : en:Chapter 16
01:26:22.320 : en:Chapter 17
01:44:41.600 : en:Chapter 18
Скриншоты

 

Вложения

  • 15,7 KB Просмотры: 0
    Личеров 0
    Сидеров 0
    Файлов 1
    Объем 745,6 MB

Привет!

Мы группа людей которые решили помочь другим в решении их проблем, а так же пользователям с поиском самых свежих и качественных инфопродуктов. За 4 с небольшим месяца мы создали этот форум на который заходят ежедневно тысячи человек и посещаемость постоянно растёт. Мы создали панель лицензирования для защиты PHP скриптов от воровства и SEO панель для мониторинга наших сайтов и выбора верной стратегии их развития. Мы надеемся что то что мы создали пригодится Вам и возможно Вы поможете нам развиваться и совершенствоваться вместе с Вами.

Статистика форума

Темы
406.640
Сообщения
465.116
Пользователи
84.573
Новый пользователь
sobolsm

Приложения форума для iOS и Android


У ркн там нет власти ;)
Приватные разговоры
Помощь Пользователи
    Вы не присоединились ни к одной комнате.