За последнюю неделю опубликовано 52 новых материалов.
Инструкция новичку Путеводитель по форуму Прокси для Telegram Показать подсказки , это бомба!

Скачать Незаконченная жизнь / An Unfinished Life (2005) BDRip 720p | D бесплатно через торрент

  • Поучаствуй (в качестве покупателя) в любых пяти совместных покупках (кроме завершённых и "Моментальных") и получи группу "Новичок" навсегда -> ссылка на раздел
  • Получай до 480 рублей за каждого приглашенного пользователя!
    представляем Вам очередное расширение партнерской программы, подробности описаны тут -> ссылка
  • 90% материалов доступно к скачиванию после простой регистрации!
    Если же ты хочешь скачивать материалы без требования оставлять отзывы то получи группу "Новичок", 10 способов повышения описаны тут -> ссылка
  • К сожалению количество битых ссылок растет и мы уже не можем их оперативно восстанавливать поэтому просим помощи у каждого нашего пользователя.
    С сегодняшнего дня, за каждую восстановленную ссылку мы заплатим Вам.
    Подробнее тут -> ссылка
  • Перенесем твои заслуги с другого ресурса!
    Мы понимаем как сложно прокачивать аккаунты на форумах, вроде раскачал аккаунт, а тут появляется ресурс в 100 раз круче но тоже с системой прокачки и снова качать аккаунт...
    Предлагаем вам перенести Ваши заслуги на другом подобном ресурсе к нам.
    Подробности описаны тут -> ссылка
  • Вы можете получать по 2.5% с каждой покупки и продажи на маркете! Подробности в теме Партнёрская программа
Если Вы не хотите скачивать, Вы всегда можетепосмотретьонлайн, просто нажмите кнопку ниже :

Открыть плеер

Torrent_Bot

Торрент-Бот
Бот форума
4 Окт 2016
91
163
20



Информация о фильме
Название: Незаконченная жизнь
Оригинальное название: An Unfinished Life
Год выхода: 2005
Жанр: Драма
Режиссер: Лассе Халльстрём
В ролях: Роберт Редфорд, Дженнифер Лопез, Морган Фриман, Джош Лукас, Дамиан Льюис, Камрин Менхейм, Бекка Гарднер, Линда Бойд, Роб Хэйтер, П. Линн Джонсон, Байрон Лукас, Тревор Мосс, Р. Нельсон Браун, Диллард Бринсон, Джейсон Диабло, Шон Дж. Дори, Брайан Коренберг, Бонни Бартон, Даниэль Данн-Моррис, Сандра Полсон, Дэйл Киплинг

О фильме:
Эйнар Джилкисон, на протяжении последних десяти лет тяжело переживающий смерть своего единственного сына, совершенно запустил собственное ранчо и разрушил свой брак. Единственный человек, о котором Эйнар продолжает заботиться, — это его наемный работник и друг Митч, который был страшно искалечен медведем-гризли. Утратив всякую связь с внешним миром, Эйнар собирается именно так провести остаток своей жизни. Но однажды к нему приезжает его невестка Джин, которую он винит в смерти сына. Джин тоже переживает далеко не лучший период в своей жизни: она разорена, находится в бегах, и у нее на руках девочка по имени Грифф, которая, по словам Джин, приходится внучкой Эйнару. Спокойной жизни Эйнара приходит конец. Атмосфера накаляется, герои не могут удержаться от вспышек гнева и взаимных обвинений… Но в конце концов происходит чудо: интерес 11-летней Грифф к сельской жизни и ее давняя тоска по семье и отцу начинают постепенно растапливать лед, сковавший сердце Эйнара…



Страна: США, Германия
Студия: Miramax Films, Revolution Studios, Initial Entertainment Group (IEG)
Продолжительность: 01:47:50
Перевод: Дублированный

Файл
Кодек: AVC
Качество: BDRip 720p
Видео: 23.976 fps, 5 149 Kbps, 1280x534
Звук: AC3, 6 ch, 640 Kbps
Субтитры: Нет


M/I
General
Unique ID : 188806177131647740090722603033237149604 (0x8E0ABF3CDAAFD2C788813AB0946057A4)
Complete name : КИНОNezakonchennaja.Zhizn'.(2005).BDRip-720p.[-=DoMiNo=-].mkv
Format : Matroska
Format version : Version 2
File size : 4.36 GiB
Duration : 1h 47mn
Overall bit rate : 5 789 Kbps
Encoded date : UTC 2014-03-23 20:47:47
Writing application : mkvmerge v6.1.0 ('Old Devil') built on Mar 4 2013 09:10:42
Writing library : libebml v1.3.0 + libmatroska v1.4.0

Video
ID : 1
Format : AVC
Format/Info : Advanced Video Codec
Format profile : [email protected]
Format settings, CABAC : Yes
Format settings, ReFrames : 9 frames
Codec ID : V_MPEG4/ISO/AVC
Duration : 1h 47mn
Bit rate : 5 149 Kbps
Width : 1 280 pixels
Height : 534 pixels
Display aspect ratio : 2.40:1
Frame rate mode : Constant
Frame rate : 23.976 fps
Color space : YUV
Chroma subsampling : 4:2:0
Bit depth : 8 bits
Scan type : Progressive
Bits/(Pixel*Frame) : 0.314
Stream size : 3.79 GiB (87%)
Writing library : x264 core 130 r2273 b3065e6
Encoding settings : cabac=1 / ref=9 / deblock=1:-3:-3 / analyse=0x3:0x133 / me=umh / subme=11 / psy=1 / psy_rd=1.00:0.20 / mixed_ref=1 / me_range=32 / chroma_me=1 / trellis=2 / 8x8dct=1 / cqm=0 / deadzone=21,11 / fast_pskip=0 / chroma_qp_offset=-6 / threads=16 / lookahead_threads=4 / sliced_threads=0 / slices=4 / nr=0 / decimate=1 / interlaced=0 / bluray_compat=0 / constrained_intra=0 / bframes=8 / b_pyramid=2 / b_adapt=2 / b_bias=0 / direct=3 / weightb=1 / open_gop=0 / weightp=2 / keyint=240 / keyint_min=23 / scenecut=40 / intra_refresh=0 / rc_lookahead=50 / rc=2pass / mbtree=1 / bitrate=5149 / ratetol=1.0 / qcomp=0.60 / qpmin=10 / qpmax=51 / qpstep=4 / cplxblur=20.0 / qblur=0.5 / ip_ratio=1.40 / aq=1:1.50
Default : Yes
Forced : No

Audio
ID : 2
Format : AC-3
Format/Info : Audio Coding 3
Mode extension : CM (complete main)
Format settings, Endianness : Big
Codec ID : A_AC3
Duration : 1h 47mn
Bit rate mode : Constant
Bit rate : 640 Kbps
Channel(s) : 6 channels
Channel positions : Front: L C R, Side: L R, LFE
Sampling rate : 48.0 KHz
Bit depth : 16 bits
Compression mode : Lossy
Stream size : 494 MiB (11%)
Default : Yes
Forced : No
Скриншоты
 

Вложения

  • 11,9 KB Просмотры: 1
    Личеров 0
    Сидеров 0
    Файлов 1
    Объем 4,4 GB

Привет!

Мы группа людей которые решили помочь другим в решении их проблем, а так же пользователям с поиском самых свежих и качественных инфопродуктов. За 4 с небольшим месяца мы создали этот форум на который заходят ежедневно тысячи человек и посещаемость постоянно растёт. Мы создали панель лицензирования для защиты PHP скриптов от воровства и SEO панель для мониторинга наших сайтов и выбора верной стратегии их развития. Мы надеемся что то что мы создали пригодится Вам и возможно Вы поможете нам развиваться и совершенствоваться вместе с Вами.

Статистика форума

Темы
410.533
Сообщения
469.090
Пользователи
86.010
Новый пользователь
Mirzo21

Приложения форума для iOS и Android


У ркн там нет власти ;)
Приватные разговоры
Помощь Пользователи
    Вы не присоединились ни к одной комнате.