За последнюю неделю опубликовано 92 новых материалов.
Инструкция новичку Путеводитель по форуму Прокси для Telegram Показать подсказки , это бомба!

Скачать Невероятные приключения итальянцев в России (1973) DVDRip от New-Team бесплатно через торрент

  • Поучаствуй (в качестве покупателя) в любых пяти совместных покупках (кроме завершённых и "Моментальных") и получи группу "Новичок" навсегда -> ссылка на раздел
  • Получай до 480 рублей за каждого приглашенного пользователя!
    представляем Вам очередное расширение партнерской программы, подробности описаны тут -> ссылка
  • 90% материалов доступно к скачиванию после простой регистрации!
    Если же ты хочешь скачивать материалы без требования оставлять отзывы то получи группу "Новичок", 10 способов повышения описаны тут -> ссылка
  • К сожалению количество битых ссылок растет и мы уже не можем их оперативно восстанавливать поэтому просим помощи у каждого нашего пользователя.
    С сегодняшнего дня, за каждую восстановленную ссылку мы заплатим Вам.
    Подробнее тут -> ссылка
  • Перенесем твои заслуги с другого ресурса!
    Мы понимаем как сложно прокачивать аккаунты на форумах, вроде раскачал аккаунт, а тут появляется ресурс в 100 раз круче но тоже с системой прокачки и снова качать аккаунт...
    Предлагаем вам перенести Ваши заслуги на другом подобном ресурсе к нам.
    Подробности описаны тут -> ссылка
  • Вы можете получать по 2.5% с каждой покупки и продажи на маркете! Подробности в теме Партнёрская программа
Если Вы не хотите скачивать, Вы всегда можетепосмотретьонлайн, просто нажмите кнопку ниже :

Открыть плеер

Torrent_Bot

Торрент-Бот
Бот форума
4 Окт 2016
102
152
20
Страна: СССР, Италия
Производство: Dino de Laurentiis Cinematografica, Мосфильм, Produzioni Cinematografiche Inter. Ma. Co.
Жанр: комедия, приключения
Год выпуска: 1973
Продолжительность: 01:38:00

Перевод: не требуется
Оригинальная аудиодорожка: русский
Cубтитры: нет

Режиссер: Эльдар Рязанов

В ролях: Андрей Миронов, Нинетто Даволи, Антония Сантилли, Алигьеро Носкезе, Тано Чимароза, Джиджи Баллиста, Евгений Евстигнеев, Ольга Аросева, Лариса Виккел, Александр Лукьянов

Роли дублировали: Михаил Кононов, Наталья Гурзо, Александр Белявский, Михаил Глузский, Яков Беленький

Описание: В одной из больниц Рима скончалась русская эмигрантка. Перед смертью пожилая дама, некогда эмигрировавшая из России, успела поведать своей внучке Ольге, что всё её огромное состояние спрятано в Ленинграде «подо львом». Это обстоятельство явилось причиной срочного старта в Ленинград всех тех, кто случайно был посвящен в эту тайну — самой Ольги, двух санитаров Антонио и Джузеппе, врача из больницы, ещё одного пациента той больницы со сломаной ногой и случайно узнавшего обо всём этом мафиозо Розарио Агро. В самолете, летящем в Москву, вся «компания», неожиданно друг для друга, встретилась. Во время полета мафиозо незаметно выкрал у врача паспорт и выбросил его в унитаз. Однако выброшенный паспорт прилип снаружи к стеклу иллюминатора. Пытаясь сбить паспорт ударами ног, мафиозо разбил стекло, куда его через несколько секунд и засосало выходящим из салона самолета воздухом. Пилоты приняли решение об экстренной посадке, и самолет, с застрявшим в окне мафиозо, совершил посадку на автостраду. После посадки солидного врача так и не выпустили из самолета из-за отсутствия паспорта. Остальных же встречал с цветами некий Андрей, под предлогом того, что один из санитаров — Антонио — «миллионный итальянский турист, который посещает CCCР», и Андрей будет персональным гидом…





Исходник: DVD9 R5
Тип релиза: DVDRip
Контейнер: AVI

Видео: 624x448 (1,393:1), 25 fps, XviD ~ 922 kbps avg, 0.132 bit/pixel
Аудио: 48 kHz, MP3 2.0, 128 kbps
MediaInfo
Общее
Полное имя : Neveroyatnye.priklyucheniya.italyancev.v.Rossii.1973.DVDRip-745_[Youtracker]_by_AVP Studio.avi
Формат : AVI
Формат/Информация : Audio Video Interleave
Размер файла : 744 Мбайт
Продолжительность : 1 ч. 38 м.
Общий поток : 1060 Кбит/сек
Программа кодирования : VirtualDubModRus 1.5.10.2 (build 2542/release)
Библиотека кодирования : VirtualDubMod build 2542/release

Видео
Идентификатор : 0
Формат : MPEG-4 Visual
Профиль формата : Advanced Simple@L5
Параметр BVOP формата : 1
Параметр QPel формата : Нет
Параметр GMC формата : Без точки перехода
Параметр матрицы формата : Выборочная
Идентификатор кодека : XVID
Идентификатор кодека/Подсказка : XviD
Продолжительность : 1 ч. 38 м.
Битрейт : 922 Кбит/сек
Ширина : 624 пикселя
Высота : 448 пикселей
Соотношение сторон : 1,393
Частота кадров : 25,000 кадров/сек
Цветовое пространство : YUV
Субдискретизация насыщенности : 4:2:0
Битовая глубина : 8 бит
Тип развёртки : Прогрессивная
Метод сжатия : С потерями
Бит/(Пиксели*Кадры) : 0.132
Размер потока : 647 Мбайт (87%)
Библиотека кодирования : XviD 65

Аудио
Идентификатор : 1
Формат : MPEG Audio
Версия формата : Version 1
Профиль формата : Layer 3
Идентификатор кодека : 55
Идентификатор кодека/Подсказка : MP3
Продолжительность : 1 ч. 38 м.
Вид битрейта : Постоянный
Битрейт : 128 Кбит/сек
Каналы : 2 канала
Частота : 48,0 КГц
Метод сжатия : С потерями
Размер потока : 89,8 Мбайт (12%)
Выравнивание : Соединение по промежуткам
Продолжительность промежутка : 40 мс. (1,00 видеокадр)
Время предзагрузки промежутка : 504 мс.
Библиотека кодирования : L3.99r
Настройки программы : -m s -V 4 -q 2 -lowpass 17 -b 128
Скриншоты
 

Вложения

  • 15,8 KB Просмотры: 1
    Личеров 0
    Сидеров 0
    Файлов 1
    Объем 744 MB

Привет!

Мы группа людей которые решили помочь другим в решении их проблем, а так же пользователям с поиском самых свежих и качественных инфопродуктов. За 4 с небольшим месяца мы создали этот форум на который заходят ежедневно тысячи человек и посещаемость постоянно растёт. Мы создали панель лицензирования для защиты PHP скриптов от воровства и SEO панель для мониторинга наших сайтов и выбора верной стратегии их развития. Мы надеемся что то что мы создали пригодится Вам и возможно Вы поможете нам развиваться и совершенствоваться вместе с Вами.

Статистика форума

Темы
404.575
Сообщения
461.419
Пользователи
80.240
Новый пользователь
Geolog88

Приложения форума для iOS и Android


У ркн там нет власти ;)
Приватные разговоры
Помощь Пользователи
    Вы не присоединились ни к одной комнате.