За последнюю неделю опубликовано 30 новых материалов.
Инструкция новичку Путеводитель по форуму Прокси для Telegram Показать подсказки , это бомба!

Скачать Невероятные приключения Билла и Теда / Bill & Ted's Excellent Adventure (1989) BDRip 1080p | P, P2, P1, A | Remastered бесплатно через торрент

  • Поучаствуй (в качестве покупателя) в любых пяти совместных покупках (кроме завершённых и "Моментальных") и получи группу "Новичок" навсегда -> ссылка на раздел
  • Получай до 480 рублей за каждого приглашенного пользователя!
    представляем Вам очередное расширение партнерской программы, подробности описаны тут -> ссылка
  • 90% материалов доступно к скачиванию после простой регистрации!
    Если же ты хочешь скачивать материалы без требования оставлять отзывы то получи группу "Новичок", 10 способов повышения описаны тут -> ссылка
  • К сожалению количество битых ссылок растет и мы уже не можем их оперативно восстанавливать поэтому просим помощи у каждого нашего пользователя.
    С сегодняшнего дня, за каждую восстановленную ссылку мы заплатим Вам.
    Подробнее тут -> ссылка
  • Перенесем твои заслуги с другого ресурса!
    Мы понимаем как сложно прокачивать аккаунты на форумах, вроде раскачал аккаунт, а тут появляется ресурс в 100 раз круче но тоже с системой прокачки и снова качать аккаунт...
    Предлагаем вам перенести Ваши заслуги на другом подобном ресурсе к нам.
    Подробности описаны тут -> ссылка
  • Вы можете получать по 2.5% с каждой покупки и продажи на маркете! Подробности в теме Партнёрская программа
Если Вы не хотите скачивать, Вы всегда можетепосмотретьонлайн, просто нажмите кнопку ниже :

Открыть плеер

Torrent_Bot

Торрент-Бот
Бот форума
4 Окт 2016
93
160
20


Информация о фильме
Название: Невероятные приключения Билла и Теда
Оригинальное название: Bill & Ted's Excellent Adventure
Год выпуска: 1989
Страна: США
Жанр: Фантастика, комедия, приключения
Продолжительность: 01:29:50

Перевод: Профессиональный (многоголосый закадровый), Профессиональный (двухголосый закадровый), Профессиональный (одноголосый закадровый), Авторский (одноголосый закадровый)
Субтитры: Русские, английские

Режиссер: Стивен Херек

В ролях: Киану Ривз, Алекс Уинтер, Джордж Карлин, Терри Камиллери, Дэн Шор, Тони Стидман, Род Лумис, Аль Леонг, Джейн Уидлин, Роберт В. Баррон

Описание: Калифорнийские школьники Билл и Тед узнают, что им не сдать экзамен по истории, если они не сделают доклад на тему «Современный мир глазами выдающейся исторической личности».
Судьба сводит их с представителем будущего — Руфусом, путешествующим на машине времени в виде телефонной будки. С ее помощью Билл и Тед не только перемещаются в прошлое, но и переносят оттуда множество исторических личностей.




Файл
Кодек: x.264
Качество: BDRip 1080p
Видео: MPEG4 Video (H264), 1920x816, 24fps, 12.7 Mbps
Аудио #1: Русский, Dolby AC3, 48000 Hz, 6ch, 384 kbps - Двухголосый
Аудио #2: Русский, Dolby AC3, 48000 Hz, 2ch, 192 kbps - Многоголосый, ТК Интер
Аудио #3: Русский, Dolby AC3, 48000 Hz, 6ch, 384 kbps - Одноголосый, Студия Мега
Аудио #4: Русский, Dolby AC3, 48000 Hz, 2ch, 192 kbps - Одноголосый, Сергей Дьяков
Аудио #5: Русский, Dolby AC3, 48000 Hz, 6ch, 384 kbps - Одноголосый, Алексей Королев
Аудио #6: Английский, Dolby AC3, 48000 Hz, 6ch, 384 kbps
Формат субтитров: Softsub (SRT)

MediaInfo:
General
Unique ID : 184934686782429403341603604794270838868 (0x8B212006C05043B8B6C7831F2E507054)
Complete name : E:Torrent21989.Bill.&.Teds.Adventure.likko.mkv
Format : Matroska
Format version : Version 4
File size : 9.17 GiB
Duration : 1 h 29 min
Overall bit rate : 14.6 Mb/s
Movie name : 1989 Невероятные приключения Билла и Теда (Remastered)/likko
Encoded date : UTC 2020-08-11 06:23:45
Writing application : mkvmerge v8.3.0 ('Over the Horizon') 64bit
Writing library : libebml v1.3.1 + libmatroska v1.4.2

Video
ID : 1
Format : AVC
Format/Info : Advanced Video Codec
Format profile : [email protected]
Format settings : CABAC / 5 Ref Frames
Format settings, CABAC : Yes
Format settings, Reference : 5 frames
Codec ID : V_MPEG4/ISO/AVC
Duration : 1 h 29 min
Bit rate : 12.7 Mb/s
Width : 1 920 pixels
Height : 816 pixels
Display aspect ratio : 2.35:1
Frame rate mode : Constant
Frame rate : 24.000 FPS
Color space : YUV
Chroma subsampling : 4:2:0
Bit depth : 8 bits
Scan type : Progressive
Bits/(Pixel*Frame) : 0.338
Stream size : 7.96 GiB (87%)
Title : 1989 Невероятные приключения Билла и Теда (Remastered)
Writing library : x264 core 148 r2638 7599210
Encoding settings : cabac=1 / ref=5 / deblock=1:-1:-1 / analyse=0x3:0x133 / me=umh / subme=11 / psy=1 / psy_rd=1.00:0.15 / mixed_ref=1 / me_range=64 / chroma_me=1 / trellis=2 / 8x8dct=1 / cqm=0 / deadzone=21,11 / fast_pskip=0 / chroma_qp_offset=-3 / threads=18 / lookahead_threads=4 / sliced_threads=0 / nr=0 / decimate=1 / interlaced=0 / bluray_compat=0 / constrained_intra=0 / bframes=10 / b_pyramid=2 / b_adapt=2 / b_bias=0 / direct=3 / weightb=1 / open_gop=0 / weightp=2 / keyint=250 / keyint_min=23 / scenecut=40 / intra_refresh=0 / rc=2pass / mbtree=0 / bitrate=12700 / ratetol=1.0 / qcomp=0.60 / qpmin=0 / qpmax=69 / qpstep=4 / cplxblur=20.0 / qblur=0.5 / ip_ratio=1.40 / pb_ratio=1.30 / aq=2:1.00
Language : English
Default : Yes
Forced : No

Audio #1
ID : 2
Format : AC-3
Format/Info : Audio Coding 3
Commercial name : Dolby Digital
Codec ID : A_AC3
Duration : 1 h 29 min
Bit rate mode : Constant
Bit rate : 384 kb/s
Channel(s) : 6 channels
Channel layout : L R C LFE Ls Rs
Sampling rate : 48.0 kHz
Frame rate : 31.250 FPS (1536 SPF)
Compression mode : Lossy
Stream size : 247 MiB (3%)
Title : Двухголосый
Language : Russian
Service kind : Complete Main
Default : Yes
Forced : No

Audio #2
ID : 3
Format : AC-3
Format/Info : Audio Coding 3
Commercial name : Dolby Digital
Codec ID : A_AC3
Duration : 1 h 29 min
Bit rate mode : Constant
Bit rate : 192 kb/s
Channel(s) : 2 channels
Channel layout : L R
Sampling rate : 48.0 kHz
Frame rate : 31.250 FPS (1536 SPF)
Compression mode : Lossy
Stream size : 124 MiB (1%)
Title : Многоголосый, ТК Интер
Language : Russian
Service kind : Complete Main
Default : No
Forced : No

Audio #3
ID : 4
Format : AC-3
Format/Info : Audio Coding 3
Commercial name : Dolby Digital
Codec ID : A_AC3
Duration : 1 h 29 min
Bit rate mode : Constant
Bit rate : 384 kb/s
Channel(s) : 6 channels
Channel layout : L R C LFE Ls Rs
Sampling rate : 48.0 kHz
Frame rate : 31.250 FPS (1536 SPF)
Compression mode : Lossy
Stream size : 247 MiB (3%)
Title : Одноголосый, Студия Мега
Language : Russian
Service kind : Complete Main
Default : No
Forced : No

Audio #4
ID : 5
Format : AC-3
Format/Info : Audio Coding 3
Commercial name : Dolby Digital
Codec ID : A_AC3
Duration : 1 h 29 min
Bit rate mode : Constant
Bit rate : 192 kb/s
Channel(s) : 2 channels
Channel layout : L R
Sampling rate : 48.0 kHz
Frame rate : 31.250 FPS (1536 SPF)
Compression mode : Lossy
Stream size : 124 MiB (1%)
Title : Одноголосый, Сергей Дьяков
Language : Russian
Service kind : Complete Main
Default : No
Forced : No

Audio #5
ID : 6
Format : AC-3
Format/Info : Audio Coding 3
Commercial name : Dolby Digital
Codec ID : A_AC3
Duration : 1 h 29 min
Bit rate mode : Constant
Bit rate : 384 kb/s
Channel(s) : 6 channels
Channel layout : L R C LFE Ls Rs
Sampling rate : 48.0 kHz
Frame rate : 31.250 FPS (1536 SPF)
Compression mode : Lossy
Stream size : 247 MiB (3%)
Title : Одноголосый, Алексей Королев
Language : Russian
Service kind : Complete Main
Default : No
Forced : No

Audio #6
ID : 7
Format : AC-3
Format/Info : Audio Coding 3
Commercial name : Dolby Digital
Codec ID : A_AC3
Duration : 1 h 29 min
Bit rate mode : Constant
Bit rate : 384 kb/s
Channel(s) : 6 channels
Channel layout : L R C LFE Ls Rs
Sampling rate : 48.0 kHz
Frame rate : 31.250 FPS (1536 SPF)
Compression mode : Lossy
Stream size : 247 MiB (3%)
Language : English
Service kind : Complete Main
Default : No
Forced : No

Text #1
ID : 8
Format : UTF-8
Codec ID : S_TEXT/UTF8
Codec ID/Info : UTF-8 Plain Text
Duration : 1 h 25 min
Bit rate : 71 b/s
Count of elements : 791
Stream size : 44.6 KiB (0%)
Language : Russian
Default : No
Forced : No

Text #2
ID : 9
Format : UTF-8
Codec ID : S_TEXT/UTF8
Codec ID/Info : UTF-8 Plain Text
Duration : 1 h 23 min
Bit rate : 47 b/s
Count of elements : 981
Stream size : 29.3 KiB (0%)
Language : English
Default : No
Forced : No

Text #3
ID : 10
Format : UTF-8
Codec ID : S_TEXT/UTF8
Codec ID/Info : UTF-8 Plain Text
Duration : 1 h 25 min
Bit rate : 52 b/s
Count of elements : 1159
Stream size : 33.0 KiB (0%)
Language : English
Default : No
Forced : No

Menu
00:00:00.000 : en:Chapter 01
00:04:53.375 : en:Chapter 02
00:09:44.791 : en:Chapter 03
00:16:42.375 : en:Chapter 04
00:23:50.583 : en:Chapter 05
00:30:54.125 : en:Chapter 06
00:41:29.916 : en:Chapter 07
00:52:26.166 : en:Chapter 08
00:59:11.333 : en:Chapter 09
01:07:24.875 : en:Chapter 10
01:13:40.166 : en:Chapter 11
01:21:26.166 : en:Chapter 12


 

Вложения

  • 46,7 KB Просмотры: 0
    Личеров 0
    Сидеров 0
    Файлов 1
    Объем 9,2 GB

Привет!

Мы группа людей которые решили помочь другим в решении их проблем, а так же пользователям с поиском самых свежих и качественных инфопродуктов. За 4 с небольшим месяца мы создали этот форум на который заходят ежедневно тысячи человек и посещаемость постоянно растёт. Мы создали панель лицензирования для защиты PHP скриптов от воровства и SEO панель для мониторинга наших сайтов и выбора верной стратегии их развития. Мы надеемся что то что мы создали пригодится Вам и возможно Вы поможете нам развиваться и совершенствоваться вместе с Вами.

Статистика форума

Темы
406.605
Сообщения
465.026
Пользователи
84.387
Новый пользователь
Сергей1672021

Приложения форума для iOS и Android


У ркн там нет власти ;)
Приватные разговоры
Помощь Пользователи
    Вы не присоединились ни к одной комнате.