За последнюю неделю опубликовано 62 новых материалов.
Инструкция новичку Путеводитель по форуму Прокси для Telegram Показать подсказки , это бомба!

Скачать Неверные / Gli infedeli / The Players (2020) WEB-DL 1080p | Sub бесплатно через торрент

  • Поучаствуй (в качестве покупателя) в любых пяти совместных покупках (кроме завершённых и "Моментальных") и получи группу "Новичок" навсегда -> ссылка на раздел
  • Получай до 480 рублей за каждого приглашенного пользователя!
    представляем Вам очередное расширение партнерской программы, подробности описаны тут -> ссылка
  • 90% материалов доступно к скачиванию после простой регистрации!
    Если же ты хочешь скачивать материалы без требования оставлять отзывы то получи группу "Новичок", 10 способов повышения описаны тут -> ссылка
  • К сожалению количество битых ссылок растет и мы уже не можем их оперативно восстанавливать поэтому просим помощи у каждого нашего пользователя.
    С сегодняшнего дня, за каждую восстановленную ссылку мы заплатим Вам.
    Подробнее тут -> ссылка
  • Перенесем твои заслуги с другого ресурса!
    Мы понимаем как сложно прокачивать аккаунты на форумах, вроде раскачал аккаунт, а тут появляется ресурс в 100 раз круче но тоже с системой прокачки и снова качать аккаунт...
    Предлагаем вам перенести Ваши заслуги на другом подобном ресурсе к нам.
    Подробности описаны тут -> ссылка
  • Вы можете получать по 2.5% с каждой покупки и продажи на маркете! Подробности в теме Партнёрская программа
Если Вы не хотите скачивать, Вы всегда можетепосмотретьонлайн, просто нажмите кнопку ниже :

Открыть плеер

Torrent_Bot

Торрент-Бот
Бот форума
4 Окт 2016
92
160
20


Информация о фильме
Название: Неверные
Оригинальное название: Gli infedeli / The Players
Год выхода: 2020
Жанр: Комедия
Режиссер: Стефано Мордини
В ролях: Риккардо Скамарчо, Валерио Мастандреа, Лаура Кьятти, Валентина Черви, Марина Фоис, Асканио Бальбо, Эвридиче Аксэн, Массимилиано Галло, Донато Пласидо, Фиоруччи Алессандро

О фильме:
От абсурдной лжи до сексуальных сюрпризов, это сборник историй захватывающего безумия нескольких мужчин, как они бьются за верность и их отношениями со своими женщинами.




Страна: Италия
Студия: 102 Distribution, HT Film, Indigo Film, Lebowski, Rai Cinema
Продолжительность: 01:28:39
Перевод: Субтитры

Файл
Кодек: AVC
Качество: WEB-DL 1080p
Видео: MPEG-4 AVC, 2870 Kбит/с, 1920x1080, 23.976 кадр/с
Аудио #1:Итальянский (E-АС3, 6 ch, 640 Кбит/с, 48.0 KHz)
Субтитры: Русские (Full), английские, испанские, французские, немецкие, итальянские, португальские | Нетфликс
► Без Рекламы!

Трейлер

MediaInfo
Источник: The.Players.2020.1080p.WEB.H264-CRYPTIC
General
Unique ID : 220935654425563562915805641251814898567 (0xA636A8C5882DB52A90F44A60F77FFB87)
Complete name : The.Players.2020.NF.1080p.WEB.H264.Sub.Rus.mkv
Format : Matroska
Format version : Version 4
File size : 2.17 GiB
Duration : 1 h 28 min
Overall bit rate mode : Variable
Overall bit rate : 3 502 kb/s
Encoded date : UTC 2020-07-16 07:25:12
Writing application : mkvmerge v7.1.0 ('Good Love') 64bit built on Jul 27 2014 13:06:55
Writing library : libebml v1.3.0 + libmatroska v1.4.1

Video
ID : 1
Format : AVC
Format/Info : Advanced Video Codec
Format profile : [email protected]
Format settings : CABAC / 3 Ref Frames
Format settings, CABAC : Yes
Format settings, Reference fra : 3 frames
Codec ID : V_MPEG4/ISO/AVC
Duration : 1 h 28 min
Bit rate mode : Variable
Bit rate : 2 870 kb/s
Maximum bit rate : 4 305 kb/s
Width : 1 920 pixels
Height : 1 080 pixels
Display aspect ratio : 16:9
Frame rate mode : Constant
Frame rate : 24.000 FPS
Color space : YUV
Chroma subsampling : 4:2:0
Bit depth : 8 bits
Scan type : Progressive
Bits/(Pixel*Frame) : 0.058
Stream size : 1.77 GiB (82%)
Writing library : x264 core 148 r2717 0d2410d
Encoding settings : cabac=1 / ref=3 / deblock=1:0:0 / analyse=0x1:0x111 / me=umh / subme=10 / psy=1 / psy_rd=1.00:0.00 / mixed_ref=1 / me_range=24 / chroma_me=1 / trellis=2 / 8x8dct=0 / cqm=0 / deadzone=21,11 / fast_pskip=1 / chroma_qp_offset=-2 / threads=8 / lookahead_threads=1 / sliced_threads=0 / nr=0 / decimate=1 / interlaced=0 / bluray_compat=0 / stitchable=1 / constrained_intra=0 / bframes=2 / b_pyramid=0 / b_adapt=2 / b_bias=0 / direct=3 / weightb=1 / open_gop=0 / weightp=2 / keyint=250 / keyint_min=24 / scenecut=0 / intra_refresh=0 / rc_lookahead=48 / rc=2pass / mbtree=1 / bitrate=2870 / ratetol=1.0 / qcomp=0.50 / qpmin=6 / qpmax=51 / qpstep=4 / cplxblur=20.0 / qblur=0.5 / vbv_maxrate=4305 / vbv_bufsize=5740 / nal_hrd=vbr / filler=0 / ip_ratio=1.40 / aq=1:1.00
Language : Italian
Default : Yes
Forced : No

Audio
ID : 2
Format : E-AC-3
Format/Info : Enhanced AC-3
Commercial name : Dolby Digital Plus
Codec ID : A_EAC3
Duration : 1 h 28 min
Bit rate mode : Constant
Bit rate : 640 kb/s
Channel(s) : 6 channels
Channel layout : L R C LFE Ls Rs
Sampling rate : 48.0 kHz
Frame rate : 31.250 FPS (1536 SPF)
Compression mode : Lossy
Stream size : 406 MiB (18%)
Title : Italian
Language : Italian
Service kind : Complete Main
Default : Yes
Forced : No

Text #1
ID : 3
Format : UTF-8
Codec ID : S_TEXT/UTF8
Codec ID/Info : UTF-8 Plain Text
Duration : 1 h 27 min
Bit rate : 82 b/s
Count of elements : 1090
Stream size : 53.0 KiB (0%)
Title : Russian
Language : Russian
Default : Yes
Forced : No

Text #2
ID : 4
Format : UTF-8
Codec ID : S_TEXT/UTF8
Codec ID/Info : UTF-8 Plain Text
Duration : 1 h 27 min
Bit rate : 54 b/s
Count of elements : 1089
Stream size : 35.0 KiB (0%)
Title : English
Language : English
Default : No
Forced : No

Text #3
ID : 5
Format : UTF-8
Codec ID : S_TEXT/UTF8
Codec ID/Info : UTF-8 Plain Text
Duration : 1 h 27 min
Bit rate : 58 b/s
Count of elements : 1102
Stream size : 37.7 KiB (0%)
Title : French
Language : French
Default : No
Forced : No

Text #4
ID : 6
Format : UTF-8
Codec ID : S_TEXT/UTF8
Codec ID/Info : UTF-8 Plain Text
Duration : 1 h 27 min
Bit rate : 50 b/s
Count of elements : 1082
Stream size : 32.3 KiB (0%)
Title : German
Language : German
Default : No
Forced : No

Text #5
ID : 7
Format : UTF-8
Codec ID : S_TEXT/UTF8
Codec ID/Info : UTF-8 Plain Text
Duration : 1 h 27 min
Bit rate : 47 b/s
Count of elements : 1068
Stream size : 30.5 KiB (0%)
Title : European Spanish
Language : Spanish
Default : No
Forced : No

Text #6
ID : 8
Format : UTF-8
Codec ID : S_TEXT/UTF8
Codec ID/Info : UTF-8 Plain Text
Duration : 1 h 23 min
Bit rate : 62 b/s
Count of elements : 1163
Stream size : 38.2 KiB (0%)
Title : Italian
Language : Italian
Default : No
Forced : No

Text #7
ID : 9
Format : UTF-8
Codec ID : S_TEXT/UTF8
Codec ID/Info : UTF-8 Plain Text
Duration : 1 h 27 min
Bit rate : 51 b/s
Count of elements : 911
Stream size : 33.0 KiB (0%)
Title : Portuguese
Language : Portuguese
Default : No
Forced : No
Скриншоты
 

Вложения

  • 11,8 KB Просмотры: 0
    Личеров 0
    Сидеров 0
    Файлов 1
    Объем 2,2 GB

Привет!

Мы группа людей которые решили помочь другим в решении их проблем, а так же пользователям с поиском самых свежих и качественных инфопродуктов. За 4 с небольшим месяца мы создали этот форум на который заходят ежедневно тысячи человек и посещаемость постоянно растёт. Мы создали панель лицензирования для защиты PHP скриптов от воровства и SEO панель для мониторинга наших сайтов и выбора верной стратегии их развития. Мы надеемся что то что мы создали пригодится Вам и возможно Вы поможете нам развиваться и совершенствоваться вместе с Вами.

Статистика форума

Темы
406.657
Сообщения
465.114
Пользователи
84.665
Новый пользователь
koleg

Приложения форума для iOS и Android


У ркн там нет власти ;)
Приватные разговоры
Помощь Пользователи
    Вы не присоединились ни к одной комнате.