За последнюю неделю опубликовано 59 новых материалов.
Инструкция новичку Путеводитель по форуму Прокси для Telegram Показать подсказки , это бомба!

Скачать Неуловимые мстители (1966) DVDRip-AVC бесплатно через торрент

  • Поучаствуй (в качестве покупателя) в любых пяти совместных покупках (кроме завершённых и "Моментальных") и получи группу "Новичок" навсегда -> ссылка на раздел
  • Получай до 480 рублей за каждого приглашенного пользователя!
    представляем Вам очередное расширение партнерской программы, подробности описаны тут -> ссылка
  • 90% материалов доступно к скачиванию после простой регистрации!
    Если же ты хочешь скачивать материалы без требования оставлять отзывы то получи группу "Новичок", 10 способов повышения описаны тут -> ссылка
  • К сожалению количество битых ссылок растет и мы уже не можем их оперативно восстанавливать поэтому просим помощи у каждого нашего пользователя.
    С сегодняшнего дня, за каждую восстановленную ссылку мы заплатим Вам.
    Подробнее тут -> ссылка
  • Перенесем твои заслуги с другого ресурса!
    Мы понимаем как сложно прокачивать аккаунты на форумах, вроде раскачал аккаунт, а тут появляется ресурс в 100 раз круче но тоже с системой прокачки и снова качать аккаунт...
    Предлагаем вам перенести Ваши заслуги на другом подобном ресурсе к нам.
    Подробности описаны тут -> ссылка
  • Вы можете получать по 2.5% с каждой покупки и продажи на маркете! Подробности в теме Партнёрская программа
Если Вы не хотите скачивать, Вы всегда можетепосмотретьонлайн, просто нажмите кнопку ниже :

Открыть плеер

Torrent_Bot

Торрент-Бот
Бот форума
4 Окт 2016
90
168
20
Информация о фильме
Название: Неуловимые мстители
Год выхода: 1966
Жанр: Приключения, военный
Режиссер: Эдмонд Кеосаян
В ролях: Василий Васильев, Виктор Косых, Валентина Курдюкова, Михаил Метелкин, Борис Сичкин, Владимир Белокуров, Надежда Федосова, Виктор Колпаков, Иван Жеваго, Александра Денисова, Лев Свердлин, Савелий Крамаров, Глеб Стриженов, Инна Чурикова, Павел Винник, Ефим Копелян, Владимир Трещалов, Геннадий Юхтин, Иван Савкин, Валентина Ананьина, Альбина Матвеева, Юрий Мартынов, Николай Горлов, Александр Милютин, Олег Савосин, Виктор Уральский, Леонид Пархоменко, Александр Пархоменко, Юрий Киреев, Владимир Протасенко

О фильме:
Бывший гимназист Валерка, веселый отчаянный Яшка-цыган, оставшиеся сиротами Данька и его сестренка Ксанка дали клятву внедриться в отряд к атаману Бурнашу и отомстить ему и его банде за смерть отца Даньки. Под видом сына старого друга атамана Данька проникает в отряд Бурнаша. Однако бандиты сумели узнать об этом. Даньку ждет казнь, но друзья на то и друзья, чтобы не бросить своего товарища в беде.




Страна: СССР
Студия: Мосфильм
Продолжительность: 01:13:50
Перевод: не требуется

Файл
Кодек: h.264
Качество: DVDRip
Видео: MPEG-4 AVC, 1024x448, 3200 Кбит/с, 25.000 кадр/с
Звук:
Аудио #1: Русский ( AC3, 6ch, 448 Кбит/с, 48.0 KHz)
Аудио #2: Русский ( AC3, 1ch, 128 Кбит/с, 48.0 KHz)
Субтитры: русские
Семпл
Скриншоты
MediaInfo
General
Unique ID : 210783959766474437247148309915645036876 (0x9E938394EB5110B4816126A6B14CC94C)
Complete name : Neulovimye.mstiteli.1966.DVDRip-AVC.mkv
Format : Matroska
Format version : Version 4 / Version 2
File size : 1.95 GiB
Duration : 1 h 13 min
Overall bit rate : 3 777 kb/s
Encoded date : UTC 2017-07-01 08:50:15
Writing application : mkvmerge v7.8.0 ('River Man') 64bit built on Mar 27 2015 16:31:37
Writing library : libebml v1.3.1 + libmatroska v1.4.2

Video
ID : 1
Format : AVC
Format/Info : Advanced Video Codec
Format profile : [email protected]
Format settings, CABAC : Yes
Format settings, ReFrames : 14 frames
Codec ID : V_MPEG4/ISO/AVC
Duration : 1 h 13 min
Bit rate : 3 200 kb/s
Width : 1 024 pixels
Height : 448 pixels
Display aspect ratio : 2.25:1
Frame rate mode : Constant
Frame rate : 25.000 FPS
Color space : YUV
Chroma subsampling : 4:2:0
Bit depth : 8 bits
Scan type : Progressive
Bits/(Pixel*Frame) : 0.279
Stream size : 1.65 GiB (85%)
Title : Video-H264
Writing library : x264 core 146 r2538 121396c
Encoding settings : cabac=1 / ref=14 / deblock=1:-3:-3 / analyse=0x3:0x133 / me=umh / subme=11 / psy=1 / psy_rd=1.00:0.00 / mixed_ref=1 / me_range=32 / chroma_me=1 / trellis=2 / 8x8dct=1 / cqm=0 / deadzone=21,11 / fast_pskip=1 / chroma_qp_offset=-2 / threads=6 / lookahead_threads=1 / sliced_threads=0 / nr=0 / decimate=1 / interlaced=0 / bluray_compat=0 / constrained_intra=0 / bframes=10 / b_pyramid=2 / b_adapt=2 / b_bias=0 / direct=3 / weightb=1 / open_gop=0 / weightp=2 / keyint=250 / keyint_min=23 / scenecut=40 / intra_refresh=0 / rc_lookahead=60 / rc=2pass / mbtree=1 / bitrate=3200 / ratetol=1.0 / qcomp=0.60 / qpmin=0 / qpmax=69 / qpstep=4 / cplxblur=20.0 / qblur=0.5 / ip_ratio=1.40 / aq=1:1.00
Language : Russian
Default : Yes
Forced : No

Audio #1
ID : 2
Format : AC-3
Format/Info : Audio Coding 3
Mode extension : CM (complete main)
Format settings, Endianness : Big
Codec ID : A_AC3
Duration : 1 h 13 min
Bit rate mode : Constant
Bit rate : 448 kb/s
Channel(s) : 6 channels
Channel positions : Front: L C R, Side: L R, LFE
Sampling rate : 48.0 kHz
Frame rate : 31.250 FPS (1536 spf)
Bit depth : 16 bits
Compression mode : Lossy
Stream size : 236 MiB (12%)
Language : Russian
Default : Yes
Forced : No

Audio #2
ID : 3
Format : AC-3
Format/Info : Audio Coding 3
Mode extension : CM (complete main)
Format settings, Endianness : Big
Codec ID : A_AC3
Duration : 1 h 13 min
Bit rate mode : Constant
Bit rate : 128 kb/s
Channel(s) : 1 channel
Channel positions : Front: C
Sampling rate : 48.0 kHz
Frame rate : 31.250 FPS (1536 spf)
Bit depth : 16 bits
Compression mode : Lossy
Delay relative to video : 2 s 303 ms
Stream size : 67.5 MiB (3%)
Language : Russian
Default : No
Forced : No

Text
ID : 4
Format : UTF-8
Codec ID : S_TEXT/UTF8
Codec ID/Info : UTF-8 Plain Text
Duration : 1 h 10 min
Bit rate : 43 b/s
Count of elements : 347
Stream size : 22.6 KiB (0%)
Language : Russian
Default : No
Forced : No
 

Вложения

  • 20,5 KB Просмотры: 1
    Личеров 0
    Сидеров 0
    Файлов 1
    Объем 1,9 GB

Привет!

Мы группа людей которые решили помочь другим в решении их проблем, а так же пользователям с поиском самых свежих и качественных инфопродуктов. За 4 с небольшим месяца мы создали этот форум на который заходят ежедневно тысячи человек и посещаемость постоянно растёт. Мы создали панель лицензирования для защиты PHP скриптов от воровства и SEO панель для мониторинга наших сайтов и выбора верной стратегии их развития. Мы надеемся что то что мы создали пригодится Вам и возможно Вы поможете нам развиваться и совершенствоваться вместе с Вами.

Статистика форума

Темы
410.947
Сообщения
469.365
Пользователи
88.321
Новый пользователь
ta2573

Приложения форума для iOS и Android


У ркн там нет власти ;)
Приватные разговоры
Помощь Пользователи
    Вы не присоединились ни к одной комнате.