За последнюю неделю опубликовано 59 новых материалов.
Инструкция новичку Путеводитель по форуму Прокси для Telegram Показать подсказки , это бомба!

Скачать Неугасающий / Forever Strong (2008) BDRip 720p | P, L1 бесплатно через торрент

  • Поучаствуй (в качестве покупателя) в любых пяти совместных покупках (кроме завершённых и "Моментальных") и получи группу "Новичок" навсегда -> ссылка на раздел
  • Получай до 480 рублей за каждого приглашенного пользователя!
    представляем Вам очередное расширение партнерской программы, подробности описаны тут -> ссылка
  • 90% материалов доступно к скачиванию после простой регистрации!
    Если же ты хочешь скачивать материалы без требования оставлять отзывы то получи группу "Новичок", 10 способов повышения описаны тут -> ссылка
  • К сожалению количество битых ссылок растет и мы уже не можем их оперативно восстанавливать поэтому просим помощи у каждого нашего пользователя.
    С сегодняшнего дня, за каждую восстановленную ссылку мы заплатим Вам.
    Подробнее тут -> ссылка
  • Перенесем твои заслуги с другого ресурса!
    Мы понимаем как сложно прокачивать аккаунты на форумах, вроде раскачал аккаунт, а тут появляется ресурс в 100 раз круче но тоже с системой прокачки и снова качать аккаунт...
    Предлагаем вам перенести Ваши заслуги на другом подобном ресурсе к нам.
    Подробности описаны тут -> ссылка
  • Вы можете получать по 2.5% с каждой покупки и продажи на маркете! Подробности в теме Партнёрская программа
Если Вы не хотите скачивать, Вы всегда можетепосмотретьонлайн, просто нажмите кнопку ниже :

Открыть плеер

Torrent_Bot

Торрент-Бот
Бот форума
4 Окт 2016
92
163
20



Информация о фильме
Название: Неугасающий
Оригинальное название: Forever Strong
Год выхода: 2008
Жанр: драма, спорт
Режиссер: Райан Литтл
В ролях: Гэри Коул, Шон Эстин, Нил МакДонаф, Шон Фэрис, Джули Уорнер, Пенн Бэджли, Элиот Шварц, Майкл Дж. Паган, Нэйтан Уэст, Макс Кэш

О фильме:
Рик Пенинг живёт точно так же, как играет в регби: быстро, жёстко и интенсивно. Когда такая жизнь доводит его до тюрьмы, тюремный опекун Маркус Тэйт предлагает ему шанс возвратиться к игре, но играя за его конкурентов, «Highland Rugby». Неохотно Рик присоединяется к команде, где он должен принять изнурительный график обучения и уникальный кодекс поведения, который предписывает тренер Джелвикс, или завершить сезон за решеткой. Как только Рик начинает чувствовать себя частью команды, его выпускают из тюрьмы домой, где он должен присоединиться к его прежней команде, тренируемой его отцом. Выпадая в жеребьевке против «Highland», в национальном чемпионате, Рик должен выбрать за кого играть…



Страна: США
Студия: Go Films, Picture Rock Entertainment
Продолжительность: 01:49:37
Перевод: Профессиональный многоголосый, закадровый [HDRezka Studio]; Любительский одноголосый, закадровый [AJ Cole]

Файл
Кодек: H.264
Качество: BDRip 720p
Видео: AVC, 1280x720 (16:9), 23.976 fps ~ 4000 Kbps
Звук:
AC3, 48 KHz, 6 ch ~ 448 Kb/s (HDRezka Studio)
AC3, 48 KHz, 2 ch ~ 192 Kb/s (AJ Cole)
AC3, 48 KHz, 6 ch ~ 640 Kb/s (английский)
Субтитры: Русские (feabue), английские
Реклама: отсутствует

MI:
General
Unique ID : 204164992188146301129222921900450848403 (0x9998BF48D4EAF7A9B9BF6797DE8B1E93)
Complete name : J:wotForever Strong.2008.BDRip.720p.mkv
Format : Matroska
Format version : Version 4 / Version 2
File size : 4.85 GiB
Duration : 1h 49mn
Overall bit rate : 6 339 Kbps
Movie name : Forever Strong 2008
Encoded date : UTC 2020-05-13 06:15:49
Writing application : mkvmerge v7.7.0 ('Six Voices') 32bit built on Feb 28 2015 23:23:00
Writing library : libebml v1.3.1 + libmatroska v1.4.2
DURATION : 01:41:36.304000000
NUMBER_OF_FRAMES : 1536
NUMBER_OF_BYTES : 46497
_STATISTICS_WRITING_APP : mkvmerge v7.7.0 ('Six Voices') 32bit built on Feb 28 2015 23:23:00
_STATISTICS_WRITING_DATE_UTC : 2020-05-13 06:15:49
_STATISTICS_TAGS : BPS DURATION NUMBER_OF_FRAMES NUMBER_OF_BYTES

Video
ID : 1
Format : AVC
Format/Info : Advanced Video Codec
Format profile : [email protected]
Format settings, CABAC : Yes
Format settings, ReFrames : 5 frames
Codec ID : V_MPEG4/ISO/AVC
Duration : 1h 49mn
Bit rate : 5 057 Kbps
Width : 1 280 pixels
Height : 720 pixels
Display aspect ratio : 16:9
Frame rate mode : Constant
Frame rate : 23.976 fps
Color space : YUV
Chroma subsampling : 4:2:0
Bit depth : 8 bits
Scan type : Progressive
Bits/(Pixel*Frame) : 0.229
Stream size : 3.78 GiB (78%)
Title : Forever Strong
Writing library : x264 core 80 r1376 3feaec2
Encoding settings : cabac=1 / ref=5 / deblock=1:0:0 / analyse=0x3:0x133 / me=umh / subme=8 / psy=1 / psy_rd=1.0:0.0 / mixed_ref=1 / me_range=16 / chroma_me=1 / trellis=1 / 8x8dct=1 / cqm=0 / deadzone=21,11 / fast_pskip=0 / chroma_qp_offset=-2 / threads=6 / sliced_threads=0 / nr=0 / decimate=1 / mbaff=0 / constrained_intra=0 / bframes=3 / b_pyramid=0 / b_adapt=1 / b_bias=0 / direct=1 / wpredb=1 / wpredp=2 / keyint=250 / keyint_min=25 / scenecut=40 / rc_lookahead=40 / rc=2pass / mbtree=1 / bitrate=5057 / ratetol=1.0 / qcomp=0.60 / qpmin=10 / qpmax=51 / qpstep=4 / cplxblur=20.0 / qblur=0.5 / ip_ratio=1.40 / aq=1:1.00
Language : English
Default : Yes
Forced : No
DURATION : 01:49:37.540000000
NUMBER_OF_FRAMES : 157703
NUMBER_OF_BYTES : 4157788993
_STATISTICS_WRITING_APP : mkvmerge v7.7.0 ('Six Voices') 32bit built on Feb 28 2015 23:23:00
_STATISTICS_WRITING_DATE_UTC : 2020-05-13 06:15:49
_STATISTICS_TAGS : BPS DURATION NUMBER_OF_FRAMES NUMBER_OF_BYTES

Audio #1
ID : 2
Format : AC-3
Format/Info : Audio Coding 3
Mode extension : CM (complete main)
Format settings, Endianness : Big
Codec ID : A_AC3
Duration : 1h 49mn
Bit rate mode : Constant
Bit rate : 448 Kbps
Channel(s) : 6 channels
Channel positions : Front: L C R, Side: L R, LFE
Sampling rate : 48.0 KHz
Compression mode : Lossy
Delay relative to video : 1s 20ms
Stream size : 351 MiB (7%)
Title : hdrezka
Language : Russian
Default : Yes
Forced : No
_STATISTICS_WRITING_APP : mkvmerge v7.7.0 ('Six Voices') 32bit built on Feb 28 2015 23:23:00
_STATISTICS_WRITING_DATE_UTC : 2020-05-13 06:15:49
_STATISTICS_TAGS : BPS DURATION NUMBER_OF_FRAMES NUMBER_OF_BYTES
DURATION : 01:49:36.704000000
NUMBER_OF_FRAMES : 205522
NUMBER_OF_BYTES : 368295424

Audio #2
ID : 3
Format : AC-3
Format/Info : Audio Coding 3
Mode extension : CM (complete main)
Format settings, Endianness : Big
Codec ID : A_AC3
Duration : 1h 49mn
Bit rate mode : Constant
Bit rate : 192 Kbps
Channel(s) : 2 channels
Channel positions : Front: L R
Sampling rate : 48.0 KHz
Compression mode : Lossy
Stream size : 151 MiB (3%)
Title : AJ Cole
Language : Russian
Default : No
Forced : No

Audio #3
ID : 4
Format : AC-3
Format/Info : Audio Coding 3
Mode extension : CM (complete main)
Format settings, Endianness : Big
Codec ID : A_AC3
Duration : 1h 49mn
Bit rate mode : Constant
Bit rate : 640 Kbps
Channel(s) : 6 channels
Channel positions : Front: L C R, Side: L R, LFE
Sampling rate : 48.0 KHz
Compression mode : Lossy
Stream size : 502 MiB (10%)
Title : English 5.1
Language : English
Default : No
Forced : No

Text #1
ID : 5
Format : UTF-8
Codec ID : S_TEXT/UTF8
Codec ID/Info : UTF-8 Plain Text
Title : Russian (thx, feabue)
Language : Russian
Default : No
Forced : No

Text #2
ID : 6
Format : UTF-8
Codec ID : S_TEXT/UTF8
Codec ID/Info : UTF-8 Plain Text
Title : English
Language : English
Default : No
Forced : No

Скриншоты
 

Вложения

  • 25,1 KB Просмотры: 0
    Личеров 0
    Сидеров 0
    Файлов 1
    Объем 4,9 GB

Привет!

Мы группа людей которые решили помочь другим в решении их проблем, а так же пользователям с поиском самых свежих и качественных инфопродуктов. За 4 с небольшим месяца мы создали этот форум на который заходят ежедневно тысячи человек и посещаемость постоянно растёт. Мы создали панель лицензирования для защиты PHP скриптов от воровства и SEO панель для мониторинга наших сайтов и выбора верной стратегии их развития. Мы надеемся что то что мы создали пригодится Вам и возможно Вы поможете нам развиваться и совершенствоваться вместе с Вами.

Статистика форума

Темы
406.678
Сообщения
465.125
Пользователи
84.737
Новый пользователь
Mo0dak

Приложения форума для iOS и Android


У ркн там нет власти ;)
Приватные разговоры
Помощь Пользователи
    Вы не присоединились ни к одной комнате.