За последнюю неделю опубликовано 52 новых материалов.
Инструкция новичку Путеводитель по форуму Прокси для Telegram Показать подсказки , это бомба!

Скачать Неудержимые / The Expendables (2010) HDRip-AVC | D | Open Matte бесплатно через торрент

  • Поучаствуй (в качестве покупателя) в любых пяти совместных покупках (кроме завершённых и "Моментальных") и получи группу "Новичок" навсегда -> ссылка на раздел
  • Получай до 480 рублей за каждого приглашенного пользователя!
    представляем Вам очередное расширение партнерской программы, подробности описаны тут -> ссылка
  • 90% материалов доступно к скачиванию после простой регистрации!
    Если же ты хочешь скачивать материалы без требования оставлять отзывы то получи группу "Новичок", 10 способов повышения описаны тут -> ссылка
  • К сожалению количество битых ссылок растет и мы уже не можем их оперативно восстанавливать поэтому просим помощи у каждого нашего пользователя.
    С сегодняшнего дня, за каждую восстановленную ссылку мы заплатим Вам.
    Подробнее тут -> ссылка
  • Перенесем твои заслуги с другого ресурса!
    Мы понимаем как сложно прокачивать аккаунты на форумах, вроде раскачал аккаунт, а тут появляется ресурс в 100 раз круче но тоже с системой прокачки и снова качать аккаунт...
    Предлагаем вам перенести Ваши заслуги на другом подобном ресурсе к нам.
    Подробности описаны тут -> ссылка
  • Вы можете получать по 2.5% с каждой покупки и продажи на маркете! Подробности в теме Партнёрская программа
Если Вы не хотите скачивать, Вы всегда можетепосмотретьонлайн, просто нажмите кнопку ниже :

Открыть плеер

Torrent_Bot

Торрент-Бот
Бот форума
4 Окт 2016
93
160
20

Информация о фильме
Название: Неудержимые
Оригинальное название: The Expendables
Год выхода: 2010
Жанр: боевик, триллер, приключения
Режиссер: Сильвестр Сталлоне / Sylvester Stallone
В ролях: Сильвестр Сталлоне, Джейсон Стэйтем, Джет Ли, Жизель Итье, Рэнди Кутюр, Дольф Лундгрен, Терри Крюс, Микки Рурк, Эрик Робертс, Дэвид Зайас

О фильме:
Отряд профессиональных наёмников и отчаянных парней во главе с Барни Россом получает непростое задание — любой ценой найти и уничтожить кровавого тирана-диктатора, нагнетающего страх на мирное население и сеющего хаос в южноамериканской стране.
Отправляясь на выполнение нелёгкой миссии, закалённые огнём и водой, прошедшие не одну войну, люди Росса попадают в самое пекло. Отныне им придётся выживать: сплотиться и достигнуть цели, либо отчаяться и погибнуть. И всё же эти храбрые, поистине невозмутимые ребята готовы реализовать даже не реализуемое. Но не всё так просто, как кажется на первый взгляд…



Страна: США
Студия: Millennium Films
Продолжительность: 01:43:28
Перевод: Профессиональный (дублированный) R5
Субтитры: русские (Forced, Full), английские

Файл
Формат: Matroska
Качество: HDRip-AVC | Open Matte
Видео: 704x396 at 23.976 fps, x264, ~942 kbps, 0.141 bpp
Аудио: AAC, 2 ch, ~64 kbps - | Русский | -
Формат субтитров: softsub (SRT)

***Релиз от:-=DoMiNo=-

M/I
x264 [info]: frame I:1465 Avg QP:15.34 size: 30740
x264 [info]: frame P:38622 Avg QP:19.54 size: 9222
x264 [info]: frame B:108762 Avg QP:21.36 size: 3022

General
Format : Matroska
Format version : Version 4
File size : 745 MiB
Duration : 1 h 43 min
Overall bit rate : 1 007 kb/s
Movie name : Неудержимые.(2010).HDRip-AVC.O.M.[-=DoMiNo=-]
Encoded date : UTC 2020-05-17 12:33:25
Writing application : mkvmerge v46.0.0 ('No Deeper Escape') 64-bit
Writing library : libebml v1.3.10 + libmatroska v1.5.2
Cover : Yes
Attachments : cover.png / cover 2.jpg

Video
ID : 1
Format : AVC
Format/Info : Advanced Video Codec
Format profile : [email protected]
Format settings : CABAC / 12 Ref Frames
Format settings, CABAC : Yes
Format settings, Reference : 12 frames
Codec ID : V_MPEG4/ISO/AVC
Duration : 1 h 43 min
Bit rate : 942 kb/s
Width : 704 pixels
Height : 396 pixels
Display aspect ratio : 16:9
Frame rate mode : Constant
Frame rate : 23.976 (24000/1001) FPS
Color space : YUV
Chroma subsampling : 4:2:0
Bit depth : 8 bits
Scan type : Progressive
Bits/(Pixel*Frame) : 0.141
Stream size : 696 MiB (93%)
Title : RIP BY -=DoMiNo=- | Open Matte
Writing library : x264 core 160 r3000 33f9e14
Encoding settings : cabac=1 / ref=12 / deblock=1:-1:-1 / analyse=0x3:0x133 / me=umh / subme=11 / psy=1 / psy_rd=1.00:0.00 / mixed_ref=1 / me_range=32 / chroma_me=1 / trellis=2 / 8x8dct=1 / cqm=0 / deadzone=21,11 / fast_pskip=0 / chroma_qp_offset=-2 / threads=6 / lookahead_threads=1 / sliced_threads=0 / nr=0 / decimate=0 / interlaced=0 / bluray_compat=0 / constrained_intra=0 / bframes=12 / b_pyramid=2 / b_adapt=2 / b_bias=0 / direct=3 / weightb=1 / open_gop=0 / weightp=2 / keyint=250 / keyint_min=23 / scenecut=40 / intra_refresh=0 / rc_lookahead=60 / rc=2pass / mbtree=0 / bitrate=942 / ratetol=1.0 / qcomp=0.70 / qpmin=0 / qpmax=69 / qpstep=4 / cplxblur=20.0 / qblur=0.5 / vbv_maxrate=50000 / vbv_bufsize=62500 / nal_hrd=none / filler=0 / ip_ratio=1.40 / pb_ratio=1.30 / aq=3:0.80
Language : English
Default : Yes
Forced : No
Color range : Limited
Color primaries : BT.709
Transfer characteristics : BT.709
Matrix coefficients : BT.709

Audio
ID : 2
Format : AAC LC SBR
Format/Info : Advanced Audio Codec Low Complexity with Spectral Band Replication
Commercial name : HE-AAC
Format settings : Implicit
Codec ID : A_AAC-2
Duration : 1 h 43 min
Bit rate : 64.0 kb/s
Channel(s) : 2 channels
Channel layout : L R
Sampling rate : 48.0 kHz
Frame rate : 23.438 FPS (2048 SPF)
Compression mode : Lossy
Stream size : 47.4 MiB (6%)
Title : DUB R5
Language : Russian
Default : Yes
Forced : No

Text #1
ID : 3
Format : UTF-8
Codec ID : S_TEXT/UTF8
Codec ID/Info : UTF-8 Plain Text
Duration : 1 h 27 min
Bit rate : 3 b/s
Count of elements : 52
Stream size : 2.41 KiB (0%)
Title : forced
Language : Russian
Default : No
Forced : Yes

Text #2
ID : 4
Format : UTF-8
Codec ID : S_TEXT/UTF8
Codec ID/Info : UTF-8 Plain Text
Duration : 1 h 30 min
Bit rate : 69 b/s
Count of elements : 911
Stream size : 45.8 KiB (0%)
Title : full
Language : Russian
Default : No
Forced : No

Text #3
ID : 5
Format : UTF-8
Codec ID : S_TEXT/UTF8
Codec ID/Info : UTF-8 Plain Text
Duration : 1 h 30 min
Bit rate : 41 b/s
Count of elements : 884
Stream size : 27.2 KiB (0%)
Title : full
Language : English
Default : No
Forced : No

Text #4
ID : 6
Format : UTF-8
Codec ID : S_TEXT/UTF8
Codec ID/Info : UTF-8 Plain Text
Duration : 1 h 34 min
Bit rate : 43 b/s
Count of elements : 1057
Stream size : 30.3 KiB (0%)
Title : SDH
Language : English
Default : No
Forced : No

Menu
00:00:00.000 : en:00:00:00.000
00:08:50.822 : en:00:08:50.822
00:17:32.176 : en:00:17:32.176
00:22:47.741 : en:00:22:47.741
00:30:35.167 : en:00:30:35.167
00:33:34.846 : en:00:33:34.846
00:38:17.128 : en:00:38:17.128
00:47:51.785 : en:00:47:51.785
00:50:15.179 : en:00:50:15.179
00:55:09.222 : en:00:55:09.222
01:00:15.737 : en:01:00:15.737
01:06:31.529 : en:01:06:31.529
01:13:36.537 : en:01:13:36.537
01:20:17.229 : en:01:20:17.229
01:26:01.323 : en:01:26:01.323
01:31:17.180 : en:01:31:17.180
Сравнения:
[URL="http://www.framecompare.com/image-compare/screenshotcomparison/99BMJNNU" target="_blank">***Сравнения => BD-(2.40:1) vs BD-Open Matte
Скриншоты
 

Вложения

  • 30,2 KB Просмотры: 0
    Личеров 0
    Сидеров 0
    Файлов 1
    Объем 745,4 MB

Привет!

Мы группа людей которые решили помочь другим в решении их проблем, а так же пользователям с поиском самых свежих и качественных инфопродуктов. За 4 с небольшим месяца мы создали этот форум на который заходят ежедневно тысячи человек и посещаемость постоянно растёт. Мы создали панель лицензирования для защиты PHP скриптов от воровства и SEO панель для мониторинга наших сайтов и выбора верной стратегии их развития. Мы надеемся что то что мы создали пригодится Вам и возможно Вы поможете нам развиваться и совершенствоваться вместе с Вами.

Статистика форума

Темы
406.648
Сообщения
465.113
Пользователи
84.625
Новый пользователь
kris_kelt

Приложения форума для iOS и Android


У ркн там нет власти ;)
Приватные разговоры
Помощь Пользователи
    Вы не присоединились ни к одной комнате.