За последнюю неделю опубликовано 200 новых материалов.
Инструкция новичку Путеводитель по форуму Прокси для Telegram Показать подсказки , это бомба!

Скачать Нет игры - нет жизни: Ноль / No Game No Life: Zero (2017) BDRip 1080p от Deadmauvlad | P | Kansai бесплатно через торрент

  • Поучаствуй (в качестве покупателя) в любых пяти совместных покупках (кроме завершённых и "Моментальных") и получи группу "Новичок" навсегда -> ссылка на раздел
  • Получай до 480 рублей за каждого приглашенного пользователя!
    представляем Вам очередное расширение партнерской программы, подробности описаны тут -> ссылка
  • 90% материалов доступно к скачиванию после простой регистрации!
    Если же ты хочешь скачивать материалы без требования оставлять отзывы то получи группу "Новичок", 10 способов повышения описаны тут -> ссылка
  • К сожалению количество битых ссылок растет и мы уже не можем их оперативно восстанавливать поэтому просим помощи у каждого нашего пользователя.
    С сегодняшнего дня, за каждую восстановленную ссылку мы заплатим Вам.
    Подробнее тут -> ссылка
  • Перенесем твои заслуги с другого ресурса!
    Мы понимаем как сложно прокачивать аккаунты на форумах, вроде раскачал аккаунт, а тут появляется ресурс в 100 раз круче но тоже с системой прокачки и снова качать аккаунт...
    Предлагаем вам перенести Ваши заслуги на другом подобном ресурсе к нам.
    Подробности описаны тут -> ссылка
  • Вы можете получать по 2.5% с каждой покупки и продажи на маркете! Подробности в теме Партнёрская программа

Torrent_Bot

Торрент-Бот
Бот форума
4 Окт 2016
124
94
20


Информация о фильме
Название: Нет игры - нет жизни
Оригинальное название: No Game No Life
Год выхода: 2017
Жанр: приключения, фантастика
Режиссер: Ацуко Исидзука
В ролях: Ёко Хикаса, Юка Игути, Аи Каяно, Риэ Кугимия, Ёсицугу Мацуока, Мамико Ното, Миюки Савасиро, Юкари Тамура

О фильме: Брат и сестра Сора и Сиро неразлучны, как в реальном, так в игровом мире. Их индивидуальные навыки в совокупности делают их идеальной командой: Сора, с его хорошо развитой интуицией и Сиро, с её замечательным интеллектом, уровень которого выходит за рамки возможного. В реальном мире они NEET, но в игровом мире они известны как непобедимая группа онлайн-игроков. Их называют «Пустые», поскольку имена учетных записей игроков всегда остаются незаполненными. Однажды, после победы над таинственным противником в онлайн-шахматах, брат и сестра получают предложение возродиться в другом мире под названием Disboard, где все решается с помощью игр. Согласившись, они попадают в другой мир, где встречают бога этого мира — Тета, который и оказался тем таинственным соперником. Вместе Сора и Сиро начинают своё путешествие, помогая слабой человеческой расе Иманити завоевать этот мир, чтобы бросить вызов самому Тету и получить звание Бога.







Страна: Япония
Студия: Mad House Ltd.
Продолжительность: 01:46:28
Перевод : Профессиональный (многоголосый, закадровый) KANSAI (2017 год)

Качество: BDRip 1080p by Moozzi2
Контейнер: MKV
Кодек: AVC
Видео: 1920x1080 (16:9), 23.976 fps, 6 311 kb/s (0.127 bit/pixel)
Аудио №1: AC-3, 48,0 КГц, 2 ch, 192 Кбит/сек, CBR | | Kansai
Аудио #2: FLAC, 48.0 kHz, 6 ch, 3 153 kb/s, VBR | | Japan (Оригинал)
Аудио #3: FLAC, 48.0 kHz, 2 ch, 1 343 kb/s, VBR | | Japan (Оригинал)
Аудио #4: FLAC, 48.0 kHz, 2 ch, 1 171 kb/s, VBR | | Japan (Комментарии сейю и режиссёра)

Русские Субтитры: Есть (Полный Перевод)


Хронология
#1 Нет игры - нет жизни [ТВ] - ТВ (12 эп. + спэшлы), адаптация ранобэ, 2014
#2 >>>Нет игры - нет жизни (фильм) - п/ф, адаптация ранобэ, 2017


MediaInfo
General
Unique ID : 198565491778498810474146043180226498588 (0x9562529970CFD3A3BDA8994CFEACD01C)
Complete name : D:фильмыFull HD[Moozzi2] No Game No Life Zero - Movie [Deadmauvlad][Moozzi2] No Game No Life Zero (BD 1920x1080 x.264 FLACx3).mkv
Format : Matroska
Format version : Version 2
File size : 9.01 GiB
Duration : 1 h 46 min
Overall bit rate mode : Variable
Overall bit rate : 12.2 Mb/s
Encoded date : UTC 2019-11-22 09:00:06
Writing application : mkvmerge v6.9.1 ('Blue Panther') 32bit built on Apr 18 2014 18:15:44
Writing library : libebml v1.3.0 + libmatroska v1.4.1

Video
ID : 1
Format : AVC
Format/Info : Advanced Video Codec
Format profile : High@L5
Format settings : CABAC / 5 Ref Frames
Format settings, CABAC : Yes
Format settings, ReFrames : 5 frames
Codec ID : V_MPEG4/ISO/AVC
Duration : 1 h 45 min
Bit rate : 6 311 kb/s
Width : 1 920 pixels
Height : 1 080 pixels
Display aspect ratio : 16:9
Frame rate mode : Constant
Frame rate : 23.976 (24000/1001) FPS
Color space : YUV
Chroma subsampling : 4:2:0
Bit depth : 8 bits
Scan type : Progressive
Bits/(Pixel*Frame) : 0.127
Stream size : 4.67 GiB (52%)
Writing library : x264 core 152 r2851 ba24899
Encoding settings : cabac=1 / ref=5 / deblock=1:1:1 / analyse=0x3:0x113 / me=umh / subme=9 / psy=1 / psy_rd=1.00:0.00 / mixed_ref=1 / me_range=32 / chroma_me=1 / trellis=0 / 8x8dct=1 / cqm=0 / deadzone=21,11 / fast_pskip=0 / chroma_qp_offset=-2 / threads=24 / lookahead_threads=2 / sliced_threads=0 / nr=0 / decimate=1 / interlaced=0 / bluray_compat=0 / stitchable=1 / constrained_intra=0 / bframes=3 / b_pyramid=2 / b_adapt=2 / b_bias=0 / direct=1 / weightb=1 / open_gop=0 / weightp=1 / keyint=240 / keyint_min=23 / scenecut=40 / intra_refresh=0 / rc_lookahead=40 / rc=crf / mbtree=1 / crf=16.0 / qcomp=0.60 / qpmin=0 / qpmax=69 / qpstep=4 / ip_ratio=1.40 / aq=1:1.00
Language : Japanese
Default : Yes
Forced : No

Audio #1
ID : 2
Format : AC-3
Format/Info : Audio Coding 3
Commercial name : Dolby Digital
Codec ID : A_AC3
Duration : 1 h 46 min
Bit rate mode : Constant
Bit rate : 192 kb/s
Channel(s) : 2 channels
Channel layout : L R
Sampling rate : 48.0 kHz
Frame rate : 31.250 FPS (1536 SPF)
Bit depth : 16 bits
Compression mode : Lossy
Stream size : 146 MiB (2%)
Title : KANSAI (сведение озвучки by Deadmauvlad)
Language : Russian
Default : No
Forced : No

Audio #2
ID : 3
Format : FLAC
Format/Info : Free Lossless Audio Codec
Codec ID : A_FLAC
Duration : 1 h 46 min
Bit rate mode : Variable
Bit rate : 3 153 kb/s
Channel(s) : 6 channels
Channel layout : L R C LFE Ls Rs
Sampling rate : 48.0 kHz
Frame rate : 11.719 FPS (4096 SPF)
Bit depth : 24 bits
Compression mode : Lossless
Stream size : 2.33 GiB (26%)
Writing library : libFLAC 1.3.2 (UTC 2017-01-01)
Language : Japanese
Default : No
Forced : No

Audio #3
ID : 4
Format : FLAC
Format/Info : Free Lossless Audio Codec
Codec ID : A_FLAC
Duration : 1 h 46 min
Bit rate mode : Variable
Bit rate : 1 343 kb/s
Channel(s) : 2 channels
Channel layout : L R
Sampling rate : 48.0 kHz
Frame rate : 11.719 FPS (4096 SPF)
Bit depth : 24 bits
Compression mode : Lossless
Stream size : 1 018 MiB (11%)
Writing library : libFLAC 1.3.2 (UTC 2017-01-01)
Language : Japanese
Default : No
Forced : No

Audio #4
ID : 5
Format : FLAC
Format/Info : Free Lossless Audio Codec
Codec ID : A_FLAC
Duration : 1 h 45 min
Bit rate mode : Variable
Bit rate : 1 171 kb/s
Channel(s) : 2 channels
Channel layout : L R
Sampling rate : 48.0 kHz
Frame rate : 11.719 FPS (4096 SPF)
Bit depth : 24 bits
Compression mode : Lossless
Stream size : 888 MiB (10%)
Writing library : libFLAC 1.3.2 (UTC 2017-01-01)
Language : Japanese
Default : No
Forced : No

Text
ID : 6
Format : ASS
Codec ID : S_TEXT/ASS
Codec ID/Info : Advanced Sub Station Alpha
Compression mode : Lossless
Language : Russian
Default : No
Forced : No

Скриншоты

ЦитатаКто-то писал:
Удаление аудиорекламы а также сведение озвучки by Deadmauvlad


 

Вложения

  • 23,6 KB Просмотры: 0
    Личеров 0
    Сидеров 0
    Файлов 1
    Объем 9 GB
Ваш e-mail не будет опубликован. Он потребуется для подтверждения Вашего поста.
Оформление текста Нажмите «Ввод», чтобы отправить ответ.

Привет!

Мы группа людей которые решили помочь другим в решении их проблем, а так же пользователям с поиском самых свежих и качественных инфопродуктов. За 4 с небольшим месяца мы создали этот форум на который заходят ежедневно тысячи человек и посещаемость постоянно растёт. Мы создали панель лицензирования для защиты PHP скриптов от воровства и SEO панель для мониторинга наших сайтов и выбора верной стратегии их развития. Мы надеемся что то что мы создали пригодится Вам и возможно Вы поможете нам развиваться и совершенствоваться вместе с Вами.

Статистика форума

Темы
378.715
Сообщения
417.945
Пользователи
49.484
Новый пользователь
malenaspecial

Приложения форума для iOS и Android


У ркн там нет власти ;)
Приватные разговоры
Помощь Пользователи
    Вы не присоединились ни к одной комнате.