За последнюю неделю опубликовано 29 новых материалов.
Инструкция новичку Путеводитель по форуму Прокси для Telegram Показать подсказки , это бомба!

Скачать Несущая смерть / Тамара / Tamara (2005) WEBRip | D бесплатно через торрент

  • Поучаствуй (в качестве покупателя) в любых пяти совместных покупках (кроме завершённых и "Моментальных") и получи группу "Новичок" навсегда -> ссылка на раздел
  • Получай до 480 рублей за каждого приглашенного пользователя!
    представляем Вам очередное расширение партнерской программы, подробности описаны тут -> ссылка
  • 90% материалов доступно к скачиванию после простой регистрации!
    Если же ты хочешь скачивать материалы без требования оставлять отзывы то получи группу "Новичок", 10 способов повышения описаны тут -> ссылка
  • К сожалению количество битых ссылок растет и мы уже не можем их оперативно восстанавливать поэтому просим помощи у каждого нашего пользователя.
    С сегодняшнего дня, за каждую восстановленную ссылку мы заплатим Вам.
    Подробнее тут -> ссылка
  • Перенесем твои заслуги с другого ресурса!
    Мы понимаем как сложно прокачивать аккаунты на форумах, вроде раскачал аккаунт, а тут появляется ресурс в 100 раз круче но тоже с системой прокачки и снова качать аккаунт...
    Предлагаем вам перенести Ваши заслуги на другом подобном ресурсе к нам.
    Подробности описаны тут -> ссылка
  • Вы можете получать по 2.5% с каждой покупки и продажи на маркете! Подробности в теме Партнёрская программа
Если Вы не хотите скачивать, Вы всегда можетепосмотретьонлайн, просто нажмите кнопку ниже :

Открыть плеер

Torrent_Bot

Торрент-Бот
Бот форума
4 Окт 2016
93
155
20
Название: Несущая смерть (Тамара)
Оригинальное название: Tamara
Год выпуска: 2005
Жанр:Ужасы, триллер
Выпущено: США, Канада, Armada Pictures, City Lights Pictures, Canadian Film or Video Production Tax Credit (CPTC)
Режиссер: Джереми Хафт
В ролях: Дженна Деван, Кэти Стюарт (II), Чэд Фауст, Брайан Кларк, Мелисса Мари Елиас, Джил Акоэн, Мэттью Мэрсден, Клодетт Минк

О фильме: 17-летняя Тамара Райли – изгой в своем классе. Жестокие одноклассники считают ее чудной и странной, а учитель английского, в которого Тамара тайно влюблена, не обращает на нее ни малейшего внимания. В довершение всех своих несчастий Тамара пишет критическую статью о двух одноклассницах в школьной газете. Когда их месть случайно приводит к гибели Тамары, они закапывают ее тело и дают клятву друг другу никогда не говорить о происшедшем. Правда, никто не знает, что при жизни Тамара увлекалась "черной" магией и мистикой, и теперь, благодаря одному древнему заклятью, она восстанет из мертвых… Вскоре Тамара возвращается в мир живых в образе обворожительной и сексуальной красавицы. Ее жертвы беспомощны перед ее коварными прихотями, ее безвольная добыча готова подчиняться ей во всем. Тамара начинает свою кровавую месть, неся изысканную и жестокую смерть своим обидчикам…





Автор рипа: Атлас31

Качество: WEBRip | Tamara.2006.1080p.AMZN.WEBRip.DDP5.1.x264-alfaHD
Видео: XviD, 704x400, 1747 Кбит/с, 23.976 кадр/с
Аудио: AC3, 6 ch, 384 Кбит/с
Размер: 1.47 ГБ
Продолжительность: 01:38:02
Перевод: Дублированный

Инфо-файл
General
Complete name : C:UsersдомDesktopкиноTamara.2005.WEBRip.[Атлас31].avi
Format : AVI
Format/Info : Audio Video Interleave
File size : 1.47 GiB
Duration : 1 h 38 min
Overall bit rate : 2 140 kb/s
Writing application : VirtualDubMod 1.5.10.3 | www.virtualdub-fr.org || (build 2550/release)
Writing library : VirtualDubMod build 2550/release

Video
ID : 0
Format : MPEG-4 Visual
Format profile : Advanced Simple@L5
Format settings, BVOP : 1
Format settings, QPel : No
Format settings, GMC : No warppoints
Format settings, Matrix : Custom
Codec ID : XVID
Codec ID/Hint : XviD
Duration : 1 h 38 min
Bit rate : 1 747 kb/s
Width : 704 pixels
Height : 400 pixels
Display aspect ratio : 16:9
Frame rate : 23.976 (24000/1001) FPS
Original frame rate : 23.976 (23976/1000) FPS
Color space : YUV
Chroma subsampling : 4:2:0
Bit depth : 8 bits
Scan type : Progressive
Compression mode : Lossy
Bits/(Pixel*Frame) : 0.259
Stream size : 1.20 GiB (82%)
Writing library : XviD 73

Audio
ID : 1
Format : AC-3
Format/Info : Audio Coding 3
Format settings, Endianness : Big
Codec ID : 2000
Duration : 1 h 38 min
Bit rate mode : Constant
Bit rate : 384 kb/s
Channel(s) : 6 channels
Channel positions : Front: L C R, Side: L R, LFE
Sampling rate : 48.0 kHz
Frame rate : 31.250 FPS (1536 SPF)
Bit depth : 16 bits
Compression mode : Lossy
Stream size : 269 MiB (18%)
Alignment : Split accross interleaves
Interleave, duration : 42 ms (1.00 video frame)
Interleave, preload duration : 500 ms
Service kind : Complete Main
Скриншоты


 

Вложения

  • 15,7 KB Просмотры: 1
    Личеров 0
    Сидеров 0
    Файлов 1
    Объем 1,5 GB

Привет!

Мы группа людей которые решили помочь другим в решении их проблем, а так же пользователям с поиском самых свежих и качественных инфопродуктов. За 4 с небольшим месяца мы создали этот форум на который заходят ежедневно тысячи человек и посещаемость постоянно растёт. Мы создали панель лицензирования для защиты PHP скриптов от воровства и SEO панель для мониторинга наших сайтов и выбора верной стратегии их развития. Мы надеемся что то что мы создали пригодится Вам и возможно Вы поможете нам развиваться и совершенствоваться вместе с Вами.

Статистика форума

Темы
406.538
Сообщения
464.648
Пользователи
83.256
Новый пользователь
Asasa33

Приложения форума для iOS и Android


У ркн там нет власти ;)
Приватные разговоры
Помощь Пользователи
    Вы не присоединились ни к одной комнате.