За последнюю неделю опубликовано 28 новых материалов.
Инструкция новичку Путеводитель по форуму Прокси для Telegram Показать подсказки , это бомба!

Скачать Несущая смерть / Tamara (2005) WEBRip 1080p | D бесплатно через торрент

  • Поучаствуй (в качестве покупателя) в любых пяти совместных покупках (кроме завершённых и "Моментальных") и получи группу "Новичок" навсегда -> ссылка на раздел
  • Получай до 480 рублей за каждого приглашенного пользователя!
    представляем Вам очередное расширение партнерской программы, подробности описаны тут -> ссылка
  • 90% материалов доступно к скачиванию после простой регистрации!
    Если же ты хочешь скачивать материалы без требования оставлять отзывы то получи группу "Новичок", 10 способов повышения описаны тут -> ссылка
  • К сожалению количество битых ссылок растет и мы уже не можем их оперативно восстанавливать поэтому просим помощи у каждого нашего пользователя.
    С сегодняшнего дня, за каждую восстановленную ссылку мы заплатим Вам.
    Подробнее тут -> ссылка
  • Перенесем твои заслуги с другого ресурса!
    Мы понимаем как сложно прокачивать аккаунты на форумах, вроде раскачал аккаунт, а тут появляется ресурс в 100 раз круче но тоже с системой прокачки и снова качать аккаунт...
    Предлагаем вам перенести Ваши заслуги на другом подобном ресурсе к нам.
    Подробности описаны тут -> ссылка
  • Вы можете получать по 2.5% с каждой покупки и продажи на маркете! Подробности в теме Партнёрская программа
Если Вы не хотите скачивать, Вы всегда можетепосмотретьонлайн, просто нажмите кнопку ниже :

Открыть плеер

Torrent_Bot

Торрент-Бот
Бот форума
4 Окт 2016
96
155
20
Информация о фильме
Название: Несущая смерть
Оригинальное название: Tamara
Год выхода: 2005
Жанр: Ужасы, триллер
Режиссер: Джереми Хафт
В ролях: Дженна Деван, Кэти Стюарт (II), Чэд Фауст, Брайан Кларк, Мелисса Мари Елиас, Джил Акоэн, Мэттью Мэрсден, Клодетт Минк

О фильме:
17-летняя Тамара Райли – изгой в своем классе. Жестокие одноклассники считают ее чудной и странной, а учитель английского, в которого Тамара тайно влюблена, не обращает на нее ни малейшего внимания. В довершение всех своих несчастий Тамара пишет критическую статью о двух одноклассницах в школьной газете. Когда их месть случайно приводит к гибели Тамары, они закапывают ее тело и дают клятву друг другу никогда не говорить о происшедшем. Правда, никто не знает, что при жизни Тамара увлекалась "черной" магией и мистикой, и теперь, благодаря одному древнему заклятью, она восстанет из мертвых… Вскоре Тамара возвращается в мир живых в образе обворожительной и сексуальной красавицы. Ее жертвы беспомощны перед ее коварными прихотями, ее безвольная добыча готова подчиняться ей во всем. Тамара начинает свою кровавую месть, неся изысканную и жестокую смерть своим обидчикам…



Страна: США, Канада
Студия: Armada Pictures, City Lights Pictures, Canadian Film or Video Production Tax Credit (CPTC)
Продолжительность: 01:38:02
Перевод: Дублированный

Файл
Кодек: AVC
Качество: WEBRip 1080p | Tamara.2006.1080p.AMZN.WEBRip.DDP5.1.x264-alfaHD
Видео: MPEG-4 AVC, 1920x1080, 13.1 Mбит/с, 23.976 кадр/с
Аудио #1: Русский ( АС3, 6ch, 384 Кбит/с, 48.0 KHz) Профессиональный (полное дублирование)
Аудио #2: Английский ( АС3, 6ch, 384 Кбит/с, 48.0 KHz)
Субтитры: русские, английские
MediaInfo
Источник: Tamara.2006.1080p.AMZN.WEBRip.DDP5.1.x264-alfaHD
General
Unique ID : 181940169255362249758650476923489373404 (0x88E066E9D66C142CA24E4614F4E44CDC)
Complete name : Tamara.2005.WEBRip.1080p
Format : Matroska
Format version : Version 4 / Version 2
File size : 9.53 GiB
Duration : 1 h 38 min
Overall bit rate mode : Variable
Overall bit rate : 13.9 Mb/s
Encoded date : UTC 2018-09-04 22:30:11
Writing application : mkvmerge v7.1.0 ('Good Love') 64bit built on Jul 27 2014 13:06:55
Writing library : libebml v1.3.0 + libmatroska v1.4.1

Video
ID : 1
Format : AVC
Format/Info : Advanced Video Codec
Format profile : High@L4
Format settings : CABAC / 4 Ref Frames
Format settings, CABAC : Yes
Format settings, ReFrames : 4 frames
Codec ID : V_MPEG4/ISO/AVC
Duration : 1 h 38 min
Bit rate mode : Variable
Bit rate : 13.1 Mb/s
Maximum bit rate : 15.0 Mb/s
Width : 1 920 pixels
Height : 1 080 pixels
Display aspect ratio : 16:9
Frame rate mode : Constant
Frame rate : 23.976 (24000/1001) FPS
Color space : YUV
Chroma subsampling : 4:2:0
Bit depth : 8 bits
Scan type : Progressive
Bits/(Pixel*Frame) : 0.264
Stream size : 9.00 GiB (94%)
Writing library : x264 core 148 r2623 d5b2374
Encoding settings : cabac=1 / ref=4 / deblock=1:-1:-1 / analyse=0x3:0x133 / me=umh / subme=9 / psy=1 / psy_rd=1.00:0.15 / mixed_ref=1 / me_range=24 / chroma_me=1 / trellis=2 / 8x8dct=1 / cqm=0 / deadzone=21,11 / fast_pskip=1 / chroma_qp_offset=-3 / threads=34 / lookahead_threads=5 / sliced_threads=0 / nr=150 / decimate=1 / interlaced=0 / bluray_compat=0 / constrained_intra=0 / bframes=8 / b_pyramid=2 / b_adapt=2 / b_bias=0 / direct=3 / weightb=1 / open_gop=0 / weightp=2 / keyint=120 / keyint_min=61 / scenecut=0 / intra_refresh=0 / rc_lookahead=120 / rc=crf / mbtree=1 / crf=18.0 / qcomp=0.60 / qpmin=0 / qpmax=69 / qpstep=4 / vbv_maxrate=15000 / vbv_bufsize=31250 / crf_max=0.0 / nal_hrd=vbr / filler=0 / ip_ratio=1.40 / aq=3:1.00
Language : English
Default : Yes
Forced : No
Color range : Limited
Color primaries : BT.709
Transfer characteristics : BT.709
Matrix coefficients : BT.709

Audio #1
ID : 2
Format : AC-3
Format/Info : Audio Coding 3
Commercial name : Dolby Digital
Codec ID : A_AC3
Duration : 1 h 38 min
Bit rate mode : Constant
Bit rate : 384 kb/s
Channel(s) : 6 channels
Channel layout : L R C LFE Ls Rs
Sampling rate : 48.0 kHz
Frame rate : 31.250 FPS (1536 SPF)
Bit depth : 16 bits
Compression mode : Lossy
Stream size : 269 MiB (3%)
Title : DUB
Language : Russian
Service kind : Complete Main
Default : Yes
Forced : No

Audio #2
ID : 3
Format : AC-3
Format/Info : Audio Coding 3
Commercial name : Dolby Digital
Codec ID : A_AC3
Duration : 1 h 38 min
Bit rate mode : Constant
Bit rate : 384 kb/s
Channel(s) : 6 channels
Channel layout : L R C LFE Ls Rs
Sampling rate : 48.0 kHz
Frame rate : 31.250 FPS (1536 SPF)
Bit depth : 16 bits
Compression mode : Lossy
Stream size : 269 MiB (3%)
Language : English
Service kind : Complete Main
Default : No
Forced : No

Text #1
ID : 4
Format : UTF-8
Codec ID : S_TEXT/UTF8
Codec ID/Info : UTF-8 Plain Text
Duration : 1 h 33 min
Bit rate : 52 b/s
Count of elements : 880
Stream size : 35.8 KiB (0%)
Language : Russian
Default : No
Forced : No

Text #2
ID : 5
Format : UTF-8
Codec ID : S_TEXT/UTF8
Codec ID/Info : UTF-8 Plain Text
Duration : 1 h 29 min
Bit rate : 35 b/s
Count of elements : 715
Stream size : 23.3 KiB (0%)
Language : English
Default : No
Forced : No

Text #3
ID : 6
Format : UTF-8
Codec ID : S_TEXT/UTF8
Codec ID/Info : UTF-8 Plain Text
Duration : 1 h 37 min
Bit rate : 38 b/s
Count of elements : 938
Stream size : 27.3 KiB (0%)
Title : SDH
Language : English
Default : No
Forced : No

Menu
00:00:00.000 : en:Scene 1
00:00:46.000 : en:Scene 2
00:04:04.000 : en:Scene 3
00:07:56.000 : en:Scene 4
00:11:26.000 : en:Scene 5
00:14:34.000 : en:Scene 6
00:15:37.000 : en:Scene 7
00:17:16.000 : en:Scene 8
00:22:06.000 : en:Scene 9
00:26:11.000 : en:Scene 10
00:33:29.000 : en:Scene 11
00:34:34.000 : en:Scene 12
00:35:03.000 : en:Scene 13
00:37:59.000 : en:Scene 14
00:38:37.000 : en:Scene 15
00:39:54.000 : en:Scene 16
00:45:48.000 : en:Scene 17
00:49:17.000 : en:Scene 18
00:54:23.000 : en:Scene 19
00:55:34.000 : en:Scene 20
00:56:46.000 : en:Scene 21
00:58:38.000 : en:Scene 22
01:03:04.000 : en:Scene 23
01:04:37.000 : en:Scene 24
01:08:31.000 : en:Scene 25
01:09:45.000 : en:Scene 26
01:12:32.000 : en:Scene 27
01:20:57.000 : en:Scene 28
01:22:57.000 : en:Scene 29
01:27:02.000 : en:Scene 30
01:33:05.000 : en:Scene 31
01:34:31.000 : en:Scene 32
Скриншоты
 

Вложения

  • 24,7 KB Просмотры: 1
    Личеров 0
    Сидеров 0
    Файлов 1
    Объем 9,5 GB

Привет!

Мы группа людей которые решили помочь другим в решении их проблем, а так же пользователям с поиском самых свежих и качественных инфопродуктов. За 4 с небольшим месяца мы создали этот форум на который заходят ежедневно тысячи человек и посещаемость постоянно растёт. Мы создали панель лицензирования для защиты PHP скриптов от воровства и SEO панель для мониторинга наших сайтов и выбора верной стратегии их развития. Мы надеемся что то что мы создали пригодится Вам и возможно Вы поможете нам развиваться и совершенствоваться вместе с Вами.

Статистика форума

Темы
406.519
Сообщения
464.554
Пользователи
82.869
Новый пользователь
AlexGurt

Приложения форума для iOS и Android


У ркн там нет власти ;)
Приватные разговоры
Помощь Пользователи
    Вы не присоединились ни к одной комнате.