За последнюю неделю опубликовано 190 новых материалов.
Инструкция новичку Путеводитель по форуму Прокси для Telegram Показать подсказки , это бомба!

Скачать Несокрушимый (2018) BDRip от GeneralFilm | GER Transfer | Лицензия бесплатно через торрент

  • Поучаствуй (в качестве покупателя) в любых пяти совместных покупках (кроме завершённых и "Моментальных") и получи группу "Новичок" навсегда -> ссылка на раздел
  • Получай до 480 рублей за каждого приглашенного пользователя!
    представляем Вам очередное расширение партнерской программы, подробности описаны тут -> ссылка
  • 90% материалов доступно к скачиванию после простой регистрации!
    Если же ты хочешь скачивать материалы без требования оставлять отзывы то получи группу "Новичок", 10 способов повышения описаны тут -> ссылка
  • К сожалению количество битых ссылок растет и мы уже не можем их оперативно восстанавливать поэтому просим помощи у каждого нашего пользователя.
    С сегодняшнего дня, за каждую восстановленную ссылку мы заплатим Вам.
    Подробнее тут -> ссылка
  • Перенесем твои заслуги с другого ресурса!
    Мы понимаем как сложно прокачивать аккаунты на форумах, вроде раскачал аккаунт, а тут появляется ресурс в 100 раз круче но тоже с системой прокачки и снова качать аккаунт...
    Предлагаем вам перенести Ваши заслуги на другом подобном ресурсе к нам.
    Подробности описаны тут -> ссылка
  • Вы можете получать по 2.5% с каждой покупки и продажи на маркете! Подробности в теме Партнёрская программа
Если Вы не хотите скачивать, Вы всегда можетепосмотретьонлайн, просто нажмите кнопку ниже :

Открыть плеер

Torrent_Bot

Торрент-Бот
Бот форума
4 Окт 2016
124
93
20



Информация о фильме
Название: Несокрушимый
Год выхода: 2018
Жанр: Военный, история, драма
Режиссер: Константин Максимов
В ролях: Андрей Чернышов, Владимир Епифанцев, Олег Фомин, Ольга Погодина, Сергей Горобченко, Николай Добрынин, Василий Седых, Владимир Кочетков, Дмитрий Золотухин, Олег Чудницов

О фильме:
В основе фильма реальная история уникального подвига экипажа танка «КВ-1». Приняв неравный бой, экипаж Семена Коновалова уничтожил 16 танков, 2 бронемашины и 8 автомашин с живой силой противника в районе хутора Нижнемитякин Тарасовского района Ростовской области.
Это история не плакатных героев, а разбитных, веселых, очень разных парней, которые просто хотели жить, но в решающую минуту сумели принять единственно верное решение и совершить подвиг достойный легенды.



Страна: Россия
Студия: ПимановФильм
Продолжительность: 01:29:34
Перевод: Не требуется | Лицензия
Cубтитры: нет

Качество: BDRip
Видео: XviD build 73, 720x304 (2.37:1), 24.000 fps, 1026 Kbps (~ 0.196 bit/pixel)
Аудио: 48.0 kHz, MP3, 2/0 ch, 128 kbps
Продолжительность: 01:29:36
Перевод: Не требуется | Лицензия
Cубтитры: нет

Скриншоты
MediaInfo
General
Complete name : D:RazdachiNesokrushimyj.2018.XviD.BDRip.GeneralFilm.avi
Format : AVI
Format/Info : Audio Video Interleave
File size : 745 MiB
Duration : 1 h 29 min
Overall bit rate : 1 163 kb/s
Writing application : VirtualDubMod 1.5.10.3 | www.virtualdub-fr.org || (build 2550/release)
Writing library : VirtualDubMod build 2550/release

Video
ID : 0
Format : MPEG-4 Visual
Format profile : Advanced Simple@L5
Format settings : BVOP1 / Custom Matrix
Format settings, BVOP : 1
Format settings, QPel : No
Format settings, GMC : No warppoints
Format settings, Matrix : Custom
Codec ID : XVID
Codec ID/Hint : XviD
Duration : 1 h 29 min
Bit rate : 1 026 kb/s
Width : 720 pixels
Height : 304 pixels
Display aspect ratio : 2.35:1
Frame rate : 24.000 FPS
Color space : YUV
Chroma subsampling : 4:2:0
Bit depth : 8 bits
Scan type : Progressive
Compression mode : Lossy
Bits/(Pixel*Frame) : 0.195
Stream size : 657 MiB (88%)
Writing library : XviD 73

Audio
ID : 1
Format : MPEG Audio
Format version : Version 1
Format profile : Layer 3
Codec ID : 55
Codec ID/Hint : MP3
Duration : 1 h 29 min
Bit rate mode : Constant
Bit rate : 128 kb/s
Channel(s) : 2 channels
Sampling rate : 48.0 kHz
Frame rate : 41.667 FPS (1152 SPF)
Compression mode : Lossy
Stream size : 82.0 MiB (11%)
Alignment : Aligned on interleaves
Interleave, duration : 42 ms (1.00 video frame)
Interleave, preload duratio : 504 ms
Writing library : LAME3.99r
Encoding settings : -m s -V 4 -q 2 -lowpass 17 -b 128
Релиз от:
 

Вложения

  • 15,5 KB Просмотры: 1
    Личеров 0
    Сидеров 0
    Файлов 1
    Объем 745,3 MB
Ваш e-mail не будет опубликован. Он потребуется для подтверждения Вашего поста.
Оформление текста Нажмите «Ввод», чтобы отправить ответ.

Привет!

Мы группа людей которые решили помочь другим в решении их проблем, а так же пользователям с поиском самых свежих и качественных инфопродуктов. За 4 с небольшим месяца мы создали этот форум на который заходят ежедневно тысячи человек и посещаемость постоянно растёт. Мы создали панель лицензирования для защиты PHP скриптов от воровства и SEO панель для мониторинга наших сайтов и выбора верной стратегии их развития. Мы надеемся что то что мы создали пригодится Вам и возможно Вы поможете нам развиваться и совершенствоваться вместе с Вами.

Статистика форума

Темы
378.666
Сообщения
417.752
Пользователи
49.155
Новый пользователь
Madlen

Приложения форума для iOS и Android


У ркн там нет власти ;)
Приватные разговоры
Помощь Пользователи
    Вы не присоединились ни к одной комнате.