За последнюю неделю опубликовано 61 новых материалов.
Инструкция новичку Путеводитель по форуму Прокси для Telegram Показать подсказки , это бомба!

Скачать Несломленный / Rad (1986) UHD BDRemux 2160p | 4K | HDR | L1 бесплатно через торрент

  • Поучаствуй (в качестве покупателя) в любых пяти совместных покупках (кроме завершённых и "Моментальных") и получи группу "Новичок" навсегда -> ссылка на раздел
  • Получай до 480 рублей за каждого приглашенного пользователя!
    представляем Вам очередное расширение партнерской программы, подробности описаны тут -> ссылка
  • 90% материалов доступно к скачиванию после простой регистрации!
    Если же ты хочешь скачивать материалы без требования оставлять отзывы то получи группу "Новичок", 10 способов повышения описаны тут -> ссылка
  • К сожалению количество битых ссылок растет и мы уже не можем их оперативно восстанавливать поэтому просим помощи у каждого нашего пользователя.
    С сегодняшнего дня, за каждую восстановленную ссылку мы заплатим Вам.
    Подробнее тут -> ссылка
  • Перенесем твои заслуги с другого ресурса!
    Мы понимаем как сложно прокачивать аккаунты на форумах, вроде раскачал аккаунт, а тут появляется ресурс в 100 раз круче но тоже с системой прокачки и снова качать аккаунт...
    Предлагаем вам перенести Ваши заслуги на другом подобном ресурсе к нам.
    Подробности описаны тут -> ссылка
  • Вы можете получать по 2.5% с каждой покупки и продажи на маркете! Подробности в теме Партнёрская программа
Если Вы не хотите скачивать, Вы всегда можетепосмотретьонлайн, просто нажмите кнопку ниже :

Открыть плеер

Torrent_Bot

Торрент-Бот
Бот форума
4 Окт 2016
92
160
20



Информация о фильме
Название: Несломленный
Оригинальное название: Rad
Год выхода: 1986
Жанр: драма, спорт
Режиссер: Хэл Нидэм
В ролях: Билл Аллен, Лори Лафлин, Талия Шайр, Рэй Уолстон, Элфи Уайз, Джек Уэстон, Барт Коннер, Марта Кобер, Джэми Кларк, Лаура Джейкоби

Описание: В маленьком городке, дабы продвинуть торговую марку спортивных товаров, организуется соревнование велогонщиков. Собираются лучшие велогонщики со всей Америки, ну и местным парням дают шанс поучаствовать. Один из них Крю Джонс, развозчик газет, будет биться за победу, разумеется организаторы будут ставить на его пути различные препоны…



Страна: США
Продолжительность: 01:33:08
Перевод: любительский (одноголосый закадровый) Вячеслав Котов
Cубтитры: английские (SDH)
Оригинальная аудиодорожка: английский

Файл
Качество: UHD BDRemux 2160p | 4K | HDR
Видео: MPEG-H HEVC Video / 79347 kbps / 2160p / 23.976 fps / 16:9 / Main 10 @ Level 5.1 @ High / 10 bits / HDR10 / BT.2020
Аудио 1: Dolby Digital Audio Russian / 192 kbps 2.0 / 48 kHz / 192 kbps
Аудио 2: DTS-HD Master Audio English / 3625 kbps 5.1 / 48 kHz / 3625 kbps / 24-bit (DTS Core: 5.1 / 48 kHz / 1509 kbps / 24-bit)
Аудио 3: Dolby Digital Audio English / 192 kbps 2.0 / 48 kHz / 192 kbps / Audio Commentary by actress Talia Shire and actor Robert Schwartzman
Аудио 4: Dolby Digital Audio English / 192 kbps 2.0 / 48 kHz / 192 kbps / Audio Commentary by actor Bill Allen, actor Bart Conner, writer Sam Bernard, and BMX riders Eddie Fiola, Martin
Аудио 5: Dolby Digital Audio English / 192 kbps 2.0 / 48 kHz / 192 kbps / Aparijo, Jose Yanez, and Jeremy Moser (from the DVD edition)

Скриншоты
MediaInfo
Unique ID : 60647157374120577261381991371258019660 (0x2DA037B77194EDB1969FBA52EEAD3F4C)
Complete name : E:MoviesRad.1986.2160p.BluRay.REMUX.HEVC.DTS-HD.MA.5.1_SHD13.mkv
Format : Matroska
Format version : Version 4
File size : 54.5 GiB
Duration : 1 h 33 min
Overall bit rate mode : Variable
Overall bit rate : 83.7 Mb/s
Movie name : Rad.1986.2160p.BluRay.REMUX.HEVC.DTS-HD.MA.5.1_SHD13
Encoded date : UTC 2020-06-07 17:12:18
Writing application : mkvmerge v47.0.0 ('Black Flag') 64-bit
Writing library : libebml v1.3.10 + libmatroska v1.5.2
Attachments : poster.png

Video
ID : 1
Format : HEVC
Format/Info : High Efficiency Video Coding
Format profile : Main [email protected]@High
HDR format : SMPTE ST 2086, HDR10 compatible
Codec ID : V_MPEGH/ISO/HEVC
Duration : 1 h 33 min
Bit rate : 79.3 Mb/s
Width : 3 840 pixels
Height : 2 160 pixels
Display aspect ratio : 16:9
Frame rate mode : Constant
Frame rate : 23.976 (24000/1001) FPS
Color space : YUV
Chroma subsampling : 4:2:0 (Type 2)
Bit depth : 10 bits
Bits/(Pixel*Frame) : 0.399
Stream size : 51.6 GiB (95%)
Title : Rad.1986.2160p.BluRay.REMUX.HEVC.DTS-HD.MA.5.1_SHD13
Language : Russian
Default : Yes
Forced : No
Color range : Limited
Color primaries : BT.2020
Transfer characteristics : PQ
Matrix coefficients : BT.2020 non-constant
Mastering display color primaries : Display P3
Mastering display luminance : min: 0.0001 cd/m2, max: 1000 cd/m2
Maximum Content Light Level : 1000 cd/m2
Maximum Frame-Average Light Level : 660 cd/m2

Audio #1
ID : 2
Format : AC-3
Format/Info : Audio Coding 3
Commercial name : Dolby Digital
Codec ID : A_AC3
Duration : 1 h 32 min
Bit rate mode : Constant
Bit rate : 192 kb/s
Channel(s) : 2 channels
Channel layout : L R
Sampling rate : 48.0 kHz
Frame rate : 31.250 FPS (1536 SPF)
Compression mode : Lossy
Stream size : 127 MiB (0%)
Title : AVO_Котов
Language : Russian
Service kind : Complete Main
Default : Yes
Forced : No

Audio #2
ID : 3
Format : DTS XLL
Format/Info : Digital Theater Systems
Commercial name : DTS-HD Master Audio
Codec ID : A_DTS
Duration : 1 h 33 min
Bit rate mode : Variable
Bit rate : 3 625 kb/s
Channel(s) : 6 channels
Channel layout : C L R Ls Rs LFE
Sampling rate : 48.0 kHz
Frame rate : 93.750 FPS (512 SPF)
Bit depth : 24 bits
Compression mode : Lossless
Stream size : 2.36 GiB (4%)
Title : Original
Language : English
Default : No
Forced : No

Audio #3
ID : 4
Format : AC-3
Format/Info : Audio Coding 3
Commercial name : Dolby Digital
Codec ID : A_AC3
Duration : 1 h 33 min
Bit rate mode : Constant
Bit rate : 192 kb/s
Channel(s) : 2 channels
Channel layout : L R
Sampling rate : 48.0 kHz
Frame rate : 31.250 FPS (1536 SPF)
Compression mode : Lossy
Stream size : 128 MiB (0%)
Title : Commentary_1
Language : English
Service kind : Complete Main
Default : No
Forced : No

Audio #4
ID : 5
Format : AC-3
Format/Info : Audio Coding 3
Commercial name : Dolby Digital
Codec ID : A_AC3
Duration : 1 h 33 min
Bit rate mode : Constant
Bit rate : 192 kb/s
Channel(s) : 2 channels
Channel layout : L R
Sampling rate : 48.0 kHz
Frame rate : 31.250 FPS (1536 SPF)
Compression mode : Lossy
Stream size : 128 MiB (0%)
Title : Commentary_2
Language : English
Service kind : Complete Main
Default : No
Forced : No

Audio #5
ID : 6
Format : AC-3
Format/Info : Audio Coding 3
Commercial name : Dolby Digital
Codec ID : A_AC3
Duration : 1 h 33 min
Bit rate mode : Constant
Bit rate : 192 kb/s
Channel(s) : 2 channels
Channel layout : L R
Sampling rate : 48.0 kHz
Frame rate : 31.250 FPS (1536 SPF)
Compression mode : Lossy
Stream size : 128 MiB (0%)
Title : Commentary_3
Language : English
Service kind : Complete Main
Default : No
Forced : No

Text #1
ID : 7
Format : UTF-8
Codec ID : S_TEXT/UTF8
Codec ID/Info : UTF-8 Plain Text
Duration : 1 h 29 min
Bit rate : 42 b/s
Count of elements : 1014
Stream size : 28.3 KiB (0%)
Language : English
Default : Yes
Forced : No

Text #2
ID : 8
Format : PGS
Muxing mode : zlib
Codec ID : S_HDMV/PGS
Codec ID/Info : Picture based subtitle format used on BDs/HD-DVDs
Duration : 1 h 31 min
Bit rate : 31.8 kb/s
Count of elements : 3076
Stream size : 20.8 MiB (0%)
Language : English
Default : No
Forced : No

Menu
00:00:00.000 : en:Chapter 01
00:20:16.048 : en:Chapter 02
00:40:25.798 : en:Chapter 03
00:58:07.650 : en:Chapter 04
01:13:39.957 : en:Chapter 05
01:33:07.498 : en:Chapter 06
 

Вложения

  • 273,3 KB Просмотры: 0
    Личеров 0
    Сидеров 0
    Файлов 1
    Объем 54,5 GB

Привет!

Мы группа людей которые решили помочь другим в решении их проблем, а так же пользователям с поиском самых свежих и качественных инфопродуктов. За 4 с небольшим месяца мы создали этот форум на который заходят ежедневно тысячи человек и посещаемость постоянно растёт. Мы создали панель лицензирования для защиты PHP скриптов от воровства и SEO панель для мониторинга наших сайтов и выбора верной стратегии их развития. Мы надеемся что то что мы создали пригодится Вам и возможно Вы поможете нам развиваться и совершенствоваться вместе с Вами.

Статистика форума

Темы
406.656
Сообщения
465.104
Пользователи
84.663
Новый пользователь
monstro911

Приложения форума для iOS и Android


У ркн там нет власти ;)
Приватные разговоры
Помощь Пользователи
    Вы не присоединились ни к одной комнате.