За последнюю неделю опубликовано 63 новых материалов.
Инструкция новичку Путеводитель по форуму Прокси для Telegram Показать подсказки , это бомба!

Скачать Нерв / Nerve (2016) WEBRip 1080p | D, A, L1 | Open Matte | Локализованная версия бесплатно через торрент

  • Поучаствуй (в качестве покупателя) в любых пяти совместных покупках (кроме завершённых и "Моментальных") и получи группу "Новичок" навсегда -> ссылка на раздел
  • Получай до 480 рублей за каждого приглашенного пользователя!
    представляем Вам очередное расширение партнерской программы, подробности описаны тут -> ссылка
  • 90% материалов доступно к скачиванию после простой регистрации!
    Если же ты хочешь скачивать материалы без требования оставлять отзывы то получи группу "Новичок", 10 способов повышения описаны тут -> ссылка
  • К сожалению количество битых ссылок растет и мы уже не можем их оперативно восстанавливать поэтому просим помощи у каждого нашего пользователя.
    С сегодняшнего дня, за каждую восстановленную ссылку мы заплатим Вам.
    Подробнее тут -> ссылка
  • Перенесем твои заслуги с другого ресурса!
    Мы понимаем как сложно прокачивать аккаунты на форумах, вроде раскачал аккаунт, а тут появляется ресурс в 100 раз круче но тоже с системой прокачки и снова качать аккаунт...
    Предлагаем вам перенести Ваши заслуги на другом подобном ресурсе к нам.
    Подробности описаны тут -> ссылка
  • Вы можете получать по 2.5% с каждой покупки и продажи на маркете! Подробности в теме Партнёрская программа
Если Вы не хотите скачивать, Вы всегда можетепосмотретьонлайн, просто нажмите кнопку ниже :

Открыть плеер

Torrent_Bot

Торрент-Бот
Бот форума
4 Окт 2016
92
160
20

Информация о фильме
Название: Нерв
Оригинальное название: Nerve
Год выхода: 2016
Жанр: боевик, триллер, драма, криминал, детектив, приключения
Режиссер: Генри Джуст, Эриель Шульман
В ролях: Эмма Робертс, Дэйв Франко, Эмили Мид, Майлс Хейзер, Кимико Гленн, Марк Джон Джеффрис, Машин Ган Келли, Брайан «Сене» Марк, Эд Сквайр, Райтор Дойл, Джульетт Льюис

Описание:
Поддавшись на уговоры одноклассниц, тихоня Ви открывает для себя мир популярной онлайн-игры «Нерв», где участники выполняют задания разной степени сложности, которые придумывают для них другие пользователи. В случае успеха игроки получают очень неплохие деньги. Ви проявляет неожиданную для самой себя смелость и отсутствие комплексов, и в очередном раунде знакомится с парнем по имени Иэн. Красивая пара нравится зрителям игры, и они решают, что следующие задания Ви и Иэн должны выполнять только вместе. Ставки растут, задания становятся все опаснее, и Ви постепенно понимает, что выйти из игры по собственной воле не получится. Те, кто считают себя игроками, на самом деле всего лишь пешки в руках таинственного сообщества Наблюдателей. И никто из участников игры не знает, какое задание станет следующим — или последним.



Страна: США
Продолжительность: 01:36:22
Перевод: Профессиональный (дублированный) iTunes + Авторский + Любительский одноголосый.
Субтитры: Русские (Forced (Hardsub), Forced (iTunes), Full), английские (Full, SDH, SDH-Colored)

Файл
Формат: Matroska
Качество: WEBRip 1080p | Open Matte
Видео: AVC, 1920x1080, ~5120 Kbps
Аудио 1: AC3, 6 ch, 384 Kbps, Русский (DUB iTunes Невафильм)
Аудио 2: DTS, 6 ch, 1509 kbps, Русский (AVO Ю. Немахов)
Аудио 3: AC3, 6 ch, 448 Kbps, Русский (VO DVD-R2)
Аудио 4: DTS, 1509 Kbps, Английский
Формат субтитров: softsub (SRT)

M/I
Общее
Полное имя : Nerve.2016.Open.Matte.1080p.WEB-DL.mkv
Формат : Matroska
Версия формата : Version 4
Размер файла : 5,89 Гбайт
Продолжительность : 1 ч. 36 м.
Общий поток : 8 750 Кбит/сек
Дата кодирования : UTC 2020-05-27 08:32:23
Программа кодирования : mkvmerge v7.8.0 ('River Man') 64bit built on Mar 27 2015 16:31:37
Библиотека кодирования : libebml v1.3.1 + libmatroska v1.4.2

Видео
Идентификатор : 1
Формат : AVC
Формат/Информация : Advanced Video Codec
Профиль формата : [email protected]
Настройки формата : CABAC / 4 Ref Frames
Параметр CABAC формата : Да
Параметр RefFrames формата : 4 кадра
Идентификатор кодека : V_MPEG4/ISO/AVC
Продолжительность : 1 ч. 36 м.
Битрейт : 5 120 Кбит/сек
Ширина : 1 920 пикселей
Высота : 1 080 пикселей
Соотношение сторон : 16:9
Режим частоты кадров : Постоянный
Частота кадров : 23,976 (24000/1001) кадра/сек
Цветовое пространство : YUV
Субдискретизация насыщенности : 4:2:0
Битовая глубина : 8 бит
Тип развёртки : Прогрессивная
Бит/(Пиксели*Кадры) : 0.103
Размер потока : 3,30 Гбайт (56%)
Библиотека кодирования : x264 core 142
Настройки программы : cabac=1 / ref=3 / deblock=1:0:0 / analyse=0x3:0x113 / me=hex / subme=7 / psy=1 / psy_rd=1.00:0.00 / mixed_ref=1 / me_range=16 / chroma_me=1 / trellis=1 / 8x8dct=1 / cqm=0 / deadzone=21,11 / fast_pskip=1 / chroma_qp_offset=-2 / threads=108 / lookahead_threads=8 / sliced_threads=0 / nr=0 / decimate=1 / interlaced=0 / bluray_compat=0 / constrained_intra=0 / bframes=6 / b_pyramid=2 / b_adapt=1 / b_bias=0 / direct=1 / weightb=1 / open_gop=0 / weightp=2 / keyint=50 / keyint_min=26 / scenecut=0 / intra_refresh=0 / rc_lookahead=40 / rc=2pass / mbtree=1 / bitrate=5120 / ratetol=1.0 / qcomp=0.60 / qpmin=0 / qpmax=69 / qpstep=4 / cplxblur=20.0 / qblur=0.5 / vbv_maxrate=7680 / vbv_bufsize=20480 / nal_hrd=none / filler=0 / ip_ratio=1.40 / aq=1:1.00
Default : Да
Forced : Нет

Аудио #1
Идентификатор : 2
Формат : AC-3
Формат/Информация : Audio Coding 3
Коммерческое название : Dolby Digital
Идентификатор кодека : A_AC3
Продолжительность : 1 ч. 36 м.
Вид битрейта : Постоянный
Битрейт : 384 Кбит/сек
Каналы : 6 каналов
Channel layout : L R C LFE Ls Rs
Частота : 48,0 КГц
Частота кадров : 31,250 кадров/сек (1536 SPF)
Метод сжатия : С потерями
Размер потока : 264 Мбайт (4%)
Заголовок : Dub - iTunes | AC3 5.1 @ 384 kbps
Язык : Russian
Service kind : Complete Main
Default : Да
Forced : Нет

Аудио #2
Идентификатор : 3
Формат : DTS
Формат/Информация : Digital Theater Systems
Идентификатор кодека : A_DTS
Продолжительность : 1 ч. 36 м.
Вид битрейта : Постоянный
Битрейт : 1 509 Кбит/сек
Каналы : 6 каналов
Channel layout : C L R Ls Rs LFE
Частота : 48,0 КГц
Частота кадров : 93,750 кадра/сек (512 SPF)
Битовая глубина : 24 бит
Метод сжатия : С потерями
Размер потока : 1,01 Гбайт (17%)
Заголовок : AVO - Юрий Немахов | DTS 5.1 @ 1509 kbps
Язык : Russian
Default : Нет
Forced : Нет

Аудио #3
Идентификатор : 4
Формат : AC-3
Формат/Информация : Audio Coding 3
Коммерческое название : Dolby Digital
Идентификатор кодека : A_AC3
Продолжительность : 1 ч. 36 м.
Вид битрейта : Постоянный
Битрейт : 448 Кбит/сек
Каналы : 6 каналов
Channel layout : L R C LFE Ls Rs
Частота : 48,0 КГц
Частота кадров : 31,250 кадров/сек (1536 SPF)
Метод сжатия : С потерями
Размер потока : 309 Мбайт (5%)
Заголовок : VO - DVD R2 | AC3 5.1 @ 448 kbps
Язык : Russian
Service kind : Complete Main
Default : Нет
Forced : Нет

Аудио #4
Идентификатор : 5
Формат : DTS
Формат/Информация : Digital Theater Systems
Идентификатор кодека : A_DTS
Продолжительность : 1 ч. 36 м.
Вид битрейта : Постоянный
Битрейт : 1 509 Кбит/сек
Каналы : 6 каналов
Channel layout : C L R Ls Rs LFE
Частота : 48,0 КГц
Частота кадров : 93,750 кадра/сек (512 SPF)
Битовая глубина : 24 бит
Метод сжатия : С потерями
Размер потока : 1,01 Гбайт (17%)
Заголовок : Original - Blu-Ray | DTS 5.1 @ 1509 kbps
Язык : English
Default : Нет
Forced : Нет

Текст #1
Идентификатор : 6
Формат : UTF-8
Идентификатор кодека : S_TEXT/UTF8
Идентификатор кодека/Информация : UTF-8 Plain Text
Продолжительность : 1 ч. 27 м.
Битрейт : 4 бит/сек
Count of elements : 61
Размер потока : 3,03 Кбайт (0%)
Заголовок : Forced - iTunes
Язык : Russian
Default : Нет
Forced : Нет

Текст #2
Идентификатор : 7
Формат : UTF-8
Идентификатор кодека : S_TEXT/UTF8
Идентификатор кодека/Информация : UTF-8 Plain Text
Продолжительность : 1 ч. 27 м.
Битрейт : 99 бит/сек
Count of elements : 1322
Размер потока : 63,6 Кбайт (0%)
Заголовок : Full - iTunes
Язык : Russian
Default : Нет
Forced : Нет

Текст #3
Идентификатор : 8
Формат : UTF-8
Идентификатор кодека : S_TEXT/UTF8
Идентификатор кодека/Информация : UTF-8 Plain Text
Продолжительность : 1 ч. 26 м.
Битрейт : 58 бит/сек
Count of elements : 1072
Размер потока : 37,1 Кбайт (0%)
Заголовок : Full - Blu-Ray
Язык : English
Default : Нет
Forced : Нет

Текст #4
Идентификатор : 9
Формат : UTF-8
Идентификатор кодека : S_TEXT/UTF8
Идентификатор кодека/Информация : UTF-8 Plain Text
Продолжительность : 1 ч. 27 м.
Битрейт : 62 бит/сек
Count of elements : 1189
Размер потока : 40,4 Кбайт (0%)
Заголовок : SDH
Язык : English
Default : Нет
Forced : Нет

Текст #5
Идентификатор : 10
Формат : UTF-8
Идентификатор кодека : S_TEXT/UTF8
Идентификатор кодека/Информация : UTF-8 Plain Text
Продолжительность : 1 ч. 27 м.
Битрейт : 77 бит/сек
Count of elements : 1189
Размер потока : 50,2 Кбайт (0%)
Заголовок : SDH-Colored
Язык : English
Default : Нет
Forced : Нет

Меню
00:00:00.000 : en:
00:05:13.437 : en:
00:13:42.754 : en:
00:20:39.511 : en:
00:28:41.553 : en:
00:33:26.337 : en:
00:38:33.686 : en:
00:43:35.655 : en:
00:49:17.121 : en:
00:53:06.891 : en:
00:58:17.827 : en:
01:05:58.579 : en:
01:10:16.587 : en:
01:14:39.891 : en:
01:19:07.118 : en:
01:27:20.109 : en:
Примечания & Сравнения:
Релиз от: TeamHD

• Исходная вебка с онлайн-кинотеатра ivi.
• Присутствует неотключаемый хардсаб.
• В полных русских субтитрах и на надписи удалены дубли, которые есть в хардсабе.
• Open Matte версия фильма, имеет большее наполнение кадра, по сравнению с Widescreen.

[URL="http://www.framecompare.com/image-compare/screenshotcomparison/77YYWNNX" target="_blank">***Сравнения => BD vs WEB-DL Open Matte
Скриншоты
 

Вложения

  • 30,3 KB Просмотры: 0
    Личеров 0
    Сидеров 0
    Файлов 1
    Объем 5,9 GB

Привет!

Мы группа людей которые решили помочь другим в решении их проблем, а так же пользователям с поиском самых свежих и качественных инфопродуктов. За 4 с небольшим месяца мы создали этот форум на который заходят ежедневно тысячи человек и посещаемость постоянно растёт. Мы создали панель лицензирования для защиты PHP скриптов от воровства и SEO панель для мониторинга наших сайтов и выбора верной стратегии их развития. Мы надеемся что то что мы создали пригодится Вам и возможно Вы поможете нам развиваться и совершенствоваться вместе с Вами.

Статистика форума

Темы
406.656
Сообщения
465.107
Пользователи
84.677
Новый пользователь
maxim_nik33

Приложения форума для iOS и Android


У ркн там нет власти ;)
Приватные разговоры
Помощь Пользователи
    Вы не присоединились ни к одной комнате.