За последнюю неделю опубликовано 62 новых материалов.
Инструкция новичку Путеводитель по форуму Прокси для Telegram Показать подсказки , это бомба!

Скачать Непобедимый дракон / Jiu long bu bai (2019) BDRemux 1080p | L1 бесплатно через торрент

  • Поучаствуй (в качестве покупателя) в любых пяти совместных покупках (кроме завершённых и "Моментальных") и получи группу "Новичок" навсегда -> ссылка на раздел
  • Получай до 480 рублей за каждого приглашенного пользователя!
    представляем Вам очередное расширение партнерской программы, подробности описаны тут -> ссылка
  • 90% материалов доступно к скачиванию после простой регистрации!
    Если же ты хочешь скачивать материалы без требования оставлять отзывы то получи группу "Новичок", 10 способов повышения описаны тут -> ссылка
  • К сожалению количество битых ссылок растет и мы уже не можем их оперативно восстанавливать поэтому просим помощи у каждого нашего пользователя.
    С сегодняшнего дня, за каждую восстановленную ссылку мы заплатим Вам.
    Подробнее тут -> ссылка
  • Перенесем твои заслуги с другого ресурса!
    Мы понимаем как сложно прокачивать аккаунты на форумах, вроде раскачал аккаунт, а тут появляется ресурс в 100 раз круче но тоже с системой прокачки и снова качать аккаунт...
    Предлагаем вам перенести Ваши заслуги на другом подобном ресурсе к нам.
    Подробности описаны тут -> ссылка
  • Вы можете получать по 2.5% с каждой покупки и продажи на маркете! Подробности в теме Партнёрская программа
Если Вы не хотите скачивать, Вы всегда можетепосмотретьонлайн, просто нажмите кнопку ниже :

Открыть плеер

Torrent_Bot

Торрент-Бот
Бот форума
4 Окт 2016
92
160
20



Информация о фильме
Название: Непобедимый дракон
Оригинальное название: Jiu long bu bai / The Invincible Dragon
Год выхода: 2019
Жанр: боевик, детектив, криминал
Режиссер: Фрут Чан
В ролях: Макс Чжан, Андерсон Силва, Кевин Чэн, Энни Лю, Стефи Тан, Жужу Чан, Энди Чоу, Лам Сует, Ричард Нг, Деон Чун

О фильме:
Принципиальный и честный гонконгский полицейский по кличке Безумец назначается на расследование убийства женщины-коллеги. Дотошный страж порядка не может найти ни одной зацепки, но, когда внезапно пропадает его невеста, тоже сотрудница полиции, становится ясно, что Безумцу придётся иметь дело с серийным убийцей.



Страна: Гонконг, Китай
Студия: Pegasus Motion Pictures
Продолжительность: 01:38:37
Перевод: Любительский одноголосый, закадровый [Виктор Береговых]

Файл
Кодек: h.264
Качество: BDRemux 1080p
Видео: MPEG4/AVC, 1920x1080, ~19.5 Mb/s, 24.000 FPS
Аудио 1: AC3, 2 ch, 224 Кbps | Русский (VO, В.Береговых)
Аудио 2: TrueHD, 6 ch, 3032 Кbps | Китайский
Субтитры: русские, английские
MI:
General
Unique ID : 113034345685936680916497285030778917212 (0x55099F842457C8EE7D525C65C682515C)
Complete name : F:Новая папка (27)Invincible.Dragon.2019.BDREMUX 1080p.mkv
Format : Matroska
Format version : Version 4
File size : 15.7 GiB
Duration : 1 h 38 min
Overall bit rate mode : Variable
Overall bit rate : 22.8 Mb/s
Movie name : Invincible.Dragon.2019.BDREMUX 1080p
Encoded date : UTC 2020-07-09 08:40:46
Writing application : mkvmerge v29.0.0 ('Like It Or Not') 64-bit
Writing library : libebml v1.3.6 + libmatroska v1.4.9
Cover : Yes
Attachments : small_cover.jpg / small_cover_land.jpg / cover.jpg / cover_land.jpg

Video
ID : 1
Format : AVC
Format/Info : Advanced Video Codec
Format profile : [email protected]
Format settings : CABAC / 4 Ref Frames
Format settings, CABAC : Yes
Format settings, RefFrames : 4 frames
Codec ID : V_MPEG4/ISO/AVC
Duration : 1 h 38 min
Bit rate mode : Variable
Bit rate : 19.5 Mb/s
Maximum bit rate : 20.0 Mb/s
Width : 1 920 pixels
Height : 1 080 pixels
Display aspect ratio : 16:9
Frame rate mode : Constant
Frame rate : 24.000 FPS
Color space : YUV
Chroma subsampling : 4:2:0
Bit depth : 8 bits
Scan type : Progressive
Bits/(Pixel*Frame) : 0.391
Stream size : 13.4 GiB (85%)
Title : Invincible.Dragon.2019.BDREMUX 1080p
Language : Chinese
Default : No
Forced : No

Audio #1
ID : 2
Format : AC-3
Format/Info : Audio Coding 3
Commercial name : Dolby Digital
Codec ID : A_AC3
Duration : 1 h 38 min
Bit rate mode : Constant
Bit rate : 224 kb/s
Channel(s) : 2 channels
Channel layout : L R
Sampling rate : 48.0 kHz
Frame rate : 31.250 FPS (1536 SPF)
Bit depth : 16 bits
Compression mode : Lossy
Stream size : 158 MiB (1%)
Title : VO | Виктор Береговых
Language : Russian
Service kind : Complete Main
Default : Yes
Forced : No

Audio #2
ID : 3
Format : MLP FBA
Format/Info : Meridian Lossless Packing FBA
Commercial name : Dolby TrueHD
Codec ID : A_TRUEHD
Duration : 1 h 38 min
Bit rate mode : Variable
Bit rate : 3 032 kb/s
Maximum bit rate : 5 850 kb/s
Channel(s) : 6 channels
Channel layout : L R C LFE Ls Rs
Sampling rate : 96.0 kHz
Frame rate : 1 200.000 FPS (80 SPF)
Compression mode : Lossless
Stream size : 2.09 GiB (13%)
Title : Original (Chi)
Language : Chinese
Default : No
Forced : No

Text #1
ID : 4
Format : UTF-8
Codec ID : S_TEXT/UTF8
Codec ID/Info : UTF-8 Plain Text
Duration : 1 h 34 min
Bit rate : 71 b/s
Count of elements : 1234
Stream size : 49.6 KiB (0%)
Title : Russian-SRT
Language : Russian
Default : No
Forced : No

Text #2
ID : 5
Format : UTF-8
Codec ID : S_TEXT/UTF8
Codec ID/Info : UTF-8 Plain Text
Duration : 1 h 34 min
Bit rate : 50 b/s
Count of elements : 1378
Stream size : 35.2 KiB (0%)
Title : English-SRT
Language : English
Default : No
Forced : No

Menu
00:00:00.000 : en:Chapter 01
00:05:57.541 : en:Chapter 02
00:11:06.041 : en:Chapter 03
00:15:39.458 : en:Chapter 04
00:20:26.833 : en:Chapter 05
00:23:31.583 : en:Chapter 06
00:27:44.791 : en:Chapter 07
00:30:51.375 : en:Chapter 08
00:34:38.125 : en:Chapter 09
00:40:35.083 : en:Chapter 10
00:46:32.333 : en:Chapter 11
00:52:25.375 : en:Chapter 12
00:57:19.041 : en:Chapter 13
01:01:23.791 : en:Chapter 14
01:05:38.333 : en:Chapter 15
01:08:45.916 : en:Chapter 16
01:15:54.375 : en:Chapter 17
01:21:40.875 : en:Chapter 18
01:26:23.541 : en:Chapter 19
01:34:21.166 : en:Chapter 20
Скриншоты
 

Вложения

  • 157,8 KB Просмотры: 0
    Личеров 0
    Сидеров 0
    Файлов 1
    Объем 15,7 GB

Привет!

Мы группа людей которые решили помочь другим в решении их проблем, а так же пользователям с поиском самых свежих и качественных инфопродуктов. За 4 с небольшим месяца мы создали этот форум на который заходят ежедневно тысячи человек и посещаемость постоянно растёт. Мы создали панель лицензирования для защиты PHP скриптов от воровства и SEO панель для мониторинга наших сайтов и выбора верной стратегии их развития. Мы надеемся что то что мы создали пригодится Вам и возможно Вы поможете нам развиваться и совершенствоваться вместе с Вами.

Статистика форума

Темы
406.657
Сообщения
465.113
Пользователи
84.665
Новый пользователь
koleg

Приложения форума для iOS и Android


У ркн там нет власти ;)
Приватные разговоры
Помощь Пользователи
    Вы не присоединились ни к одной комнате.