За последнюю неделю опубликовано 66 новых материалов.
Инструкция новичку Путеводитель по форуму Прокси для Telegram Показать подсказки , это бомба!

Скачать Неогранённые драгоценности / Uncut Gems (2019) BDRip-AVC | D | Пифагор бесплатно через торрент

  • Поучаствуй (в качестве покупателя) в любых пяти совместных покупках (кроме завершённых и "Моментальных") и получи группу "Новичок" навсегда -> ссылка на раздел
  • Получай до 480 рублей за каждого приглашенного пользователя!
    представляем Вам очередное расширение партнерской программы, подробности описаны тут -> ссылка
  • 90% материалов доступно к скачиванию после простой регистрации!
    Если же ты хочешь скачивать материалы без требования оставлять отзывы то получи группу "Новичок", 10 способов повышения описаны тут -> ссылка
  • К сожалению количество битых ссылок растет и мы уже не можем их оперативно восстанавливать поэтому просим помощи у каждого нашего пользователя.
    С сегодняшнего дня, за каждую восстановленную ссылку мы заплатим Вам.
    Подробнее тут -> ссылка
  • Перенесем твои заслуги с другого ресурса!
    Мы понимаем как сложно прокачивать аккаунты на форумах, вроде раскачал аккаунт, а тут появляется ресурс в 100 раз круче но тоже с системой прокачки и снова качать аккаунт...
    Предлагаем вам перенести Ваши заслуги на другом подобном ресурсе к нам.
    Подробности описаны тут -> ссылка
  • Вы можете получать по 2.5% с каждой покупки и продажи на маркете! Подробности в теме Партнёрская программа
Если Вы не хотите скачивать, Вы всегда можетепосмотретьонлайн, просто нажмите кнопку ниже :

Открыть плеер

Torrent_Bot

Торрент-Бот
Бот форума
4 Окт 2016
92
163
20

Информация о фильме
Название: Неогранённые драгоценности
Оригинальное название: Uncut Gems
Год выхода: 2019
Жанр: Триллер, драма, криминал, детектив
Режиссер: Бен Сэфди, Джошуа Сэфди
В ролях: Адам Сэндлер, Джулия Фокс, Кевин Гарнетт, Идина Мензел, Ноа Фишер, Лакит Стэнфилд, Эрик Богосян, Кит Уильямс Ричардс, Джадд Хёрш, Майк Франчеза

О фильме:
Владелец ювелирного магазина в Нью-Йорке Говард Ратнер увлекается азартными играми, делает большие ставки на спорт и погрязает в долгах. Он надеется спасти свой бизнес, продав на аукционе редкую драгоценность, но по неосторожности одалживает ее своему знаменитому клиенту – суперзвезде НБА Кевину Гарнетту. Невольная уступка обходится ему слишком дорого. Теперь Ратнер должен вернуть драгоценность прежде, чем вся его жизнь развалится.



Страна: США
Студия: Elara Pictures, Scott Rudin Productions, Sikelia Productions
Продолжительность: 02:15:08
Перевод: Профессиональный (полное дублирование) [Пифагор]

Файл
Качество: BDRip-AVC [BDRemux 1080p]
Видео: AVC, 4264 kb/s, 1104x462, 23.976 fps
Аудио 1: Русский | AC-3, 6 ch, 448 Kbps, 48.0 KHz DUB
Аудио 2: Английский | AC-3, 6 ch, 448 Kbps, 48.0 KHz
Субтитры: Русские (Full, forced), Английские (Full, SDH)

M/I
x264 [info]: frame I:1375 Avg QP:17.23 size: 72564
x264 [info]: frame P:41240 Avg QP:18.60 size: 38990
x264 [info]: frame B:151786 Avg QP:21.13 size: 17220
x264 [info]: consecutive B-frames: 1.7% 2.6% 8.1% 18.9% 19.3% 36.1% 6.0% 1.5% 2.1% 2.1% 1.7%

Format : Matroska
Format version : Version 4
File size : 4.88 GiB
Duration : 2 h 15 min
Overall bit rate : 5 138 kb/s
Movie name : Uncut Gems (2019)
Encoded date : UTC 2020-03-12 17:53:20
Writing application : mkvmerge v8.2.0 ('World of Adventure') 64bit
Writing library : libebml v1.3.1 + libmatroska v1.4.2

Video
ID : 1
Format : AVC
Format/Info : Advanced Video Codec
Format profile : [email protected]
Format settings : CABAC / 11 Ref Frames
Format settings, CABAC : Yes
Format settings, Reference frames : 11 frames
Codec ID : V_MPEG4/ISO/AVC
Duration : 2 h 15 min
Bit rate : 4 264 kb/s
Width : 1 104 pixels
Height : 462 pixels
Display aspect ratio : 2.40:1
Frame rate mode : Constant
Frame rate : 23.976 (24000/1001) FPS
Color space : YUV
Chroma subsampling : 4:2:0
Bit depth : 8 bits
Scan type : Progressive
Bits/(Pixel*Frame) : 0.349
Stream size : 4.02 GiB (83%)
Title : Uncut Gems (2019)
Writing library : x264 core 159 r2991 1771b55
Encoding settings : cabac=1 / ref=11 / deblock=1:-3:-2 / analyse=0x3:0x133 / me=umh / subme=11 / psy=1 / psy_rd=1.00:0.05 / mixed_ref=1 / me_range=48 / chroma_me=1 / trellis=2 / 8x8dct=1 / cqm=0 / deadzone=21,11 / fast_pskip=0 / chroma_qp_offset=-3 / threads=12 / lookahead_threads=3 / sliced_threads=0 / nr=0 / decimate=1 / interlaced=0 / bluray_compat=0 / constrained_intra=0 / bframes=10 / b_pyramid=2 / b_adapt=2 / b_bias=0 / direct=3 / weightb=1 / open_gop=0 / weightp=2 / keyint=250 / keyint_min=23 / scenecut=40 / intra_refresh=0 / rc_lookahead=60 / rc=crf / mbtree=0 / crf=18.9 / qcomp=0.60 / qpmin=0 / qpmax=69 / qpstep=4 / vbv_maxrate=50000 / vbv_bufsize=62500 / crf_max=0.0 / nal_hrd=none / filler=0 / ip_ratio=1.40 / pb_ratio=1.30 / aq=3:0.90
Language : English
Default : Yes
Forced : No

Audio #1
ID : 2
Format : AC-3
Format/Info : Audio Coding 3
Commercial name : Dolby Digital
Codec ID : A_AC3
Duration : 2 h 15 min
Bit rate mode : Constant
Bit rate : 448 kb/s
Channel(s) : 6 channels
Channel layout : L R C LFE Ls Rs
Sampling rate : 48.0 kHz
Frame rate : 31.250 FPS (1536 SPF)
Bit depth : 16 bits
Compression mode : Lossy
Stream size : 435 MiB (9%)
Title : Dub (Pifagor)
Language : Russian
Service kind : Complete Main
Default : Yes
Forced : No

Audio #2
ID : 3
Format : AC-3
Format/Info : Audio Coding 3
Commercial name : Dolby Digital
Codec ID : A_AC3
Duration : 2 h 15 min
Bit rate mode : Constant
Bit rate : 448 kb/s
Channel(s) : 6 channels
Channel layout : L R C LFE Ls Rs
Sampling rate : 48.0 kHz
Frame rate : 31.250 FPS (1536 SPF)
Bit depth : 16 bits
Compression mode : Lossy
Stream size : 433 MiB (9%)
Title : Original
Language : English
Service kind : Complete Main
Default : No
Forced : No

Text #1
ID : 4
Format : UTF-8
Codec ID : S_TEXT/UTF8
Codec ID/Info : UTF-8 Plain Text
Duration : 2 h 13 min
Bit rate : 2 b/s
Count of elements : 39
Stream size : 2.11 KiB (0%)
Title : Forced
Language : Russian
Default : Yes
Forced : No

Text #2
ID : 5
Format : UTF-8
Codec ID : S_TEXT/UTF8
Codec ID/Info : UTF-8 Plain Text
Duration : 2 h 13 min
Bit rate : 133 b/s
Count of elements : 2518
Stream size : 131 KiB (0%)
Title : Full
Language : Russian
Default : No
Forced : No

Text #3
ID : 6
Format : UTF-8
Codec ID : S_TEXT/UTF8
Codec ID/Info : UTF-8 Plain Text
Duration : 2 h 9 min
Bit rate : 107 b/s
Count of elements : 2584
Stream size : 102 KiB (0%)
Title : Full
Language : English
Default : No
Forced : No

Text #4
ID : 7
Format : UTF-8
Codec ID : S_TEXT/UTF8
Codec ID/Info : UTF-8 Plain Text
Duration : 2 h 13 min
Bit rate : 114 b/s
Count of elements : 2730
Stream size : 112 KiB (0%)
Title : SDH
Language : English
Default : No
Forced : No

Menu
00:00:00.000 : en:Chapter 01
00:08:37.475 : en:Chapter 02
00:18:26.605 : en:Chapter 03
00:23:23.277 : en:Chapter 04
00:31:56.123 : en:Chapter 05
00:36:06.039 : en:Chapter 06
00:43:14.342 : en:Chapter 07
00:51:10.234 : en:Chapter 08
00:57:30.363 : en:Chapter 09
01:03:09.035 : en:Chapter 10
01:11:49.430 : en:Chapter 11
01:21:41.939 : en:Chapter 12
01:31:03.291 : en:Chapter 13
01:42:45.492 : en:Chapter 14
01:49:37.112 : en:Chapter 15
02:00:15.333 : en:Chapter 16
Скриншоты
 

Вложения

  • 13,2 KB Просмотры: 0
    Личеров 0
    Сидеров 0
    Файлов 1
    Объем 4,9 GB

Привет!

Мы группа людей которые решили помочь другим в решении их проблем, а так же пользователям с поиском самых свежих и качественных инфопродуктов. За 4 с небольшим месяца мы создали этот форум на который заходят ежедневно тысячи человек и посещаемость постоянно растёт. Мы создали панель лицензирования для защиты PHP скриптов от воровства и SEO панель для мониторинга наших сайтов и выбора верной стратегии их развития. Мы надеемся что то что мы создали пригодится Вам и возможно Вы поможете нам развиваться и совершенствоваться вместе с Вами.

Статистика форума

Темы
406.677
Сообщения
465.122
Пользователи
84.733
Новый пользователь
Gen2203

Приложения форума для iOS и Android


У ркн там нет власти ;)
Приватные разговоры
Помощь Пользователи
    Вы не присоединились ни к одной комнате.