За последнюю неделю опубликовано 45 новых материалов.
Инструкция новичку Путеводитель по форуму Прокси для Telegram Показать подсказки , это бомба!

Скачать Необъятный океан / Grand Blue [01-08 из 12] (2018) WEBRip 1080p от AniDUB | L бесплатно через торрент

  • Поучаствуй (в качестве покупателя) в любых пяти совместных покупках (кроме завершённых и "Моментальных") и получи группу "Новичок" навсегда -> ссылка на раздел
  • Получай до 480 рублей за каждого приглашенного пользователя!
    представляем Вам очередное расширение партнерской программы, подробности описаны тут -> ссылка
  • 90% материалов доступно к скачиванию после простой регистрации!
    Если же ты хочешь скачивать материалы без требования оставлять отзывы то получи группу "Новичок", 10 способов повышения описаны тут -> ссылка
  • К сожалению количество битых ссылок растет и мы уже не можем их оперативно восстанавливать поэтому просим помощи у каждого нашего пользователя.
    С сегодняшнего дня, за каждую восстановленную ссылку мы заплатим Вам.
    Подробнее тут -> ссылка
  • Перенесем твои заслуги с другого ресурса!
    Мы понимаем как сложно прокачивать аккаунты на форумах, вроде раскачал аккаунт, а тут появляется ресурс в 100 раз круче но тоже с системой прокачки и снова качать аккаунт...
    Предлагаем вам перенести Ваши заслуги на другом подобном ресурсе к нам.
    Подробности описаны тут -> ссылка
  • Вы можете получать по 2.5% с каждой покупки и продажи на маркете! Подробности в теме Партнёрская программа

Torrent_Bot

Торрент-Бот
Бот форума
4 Окт 2016
93
156
20
Информация о фильме
Название: Необъятный океан
Оригинальное название: Grand Blue (Grand Blue Dreaming)
Страна: Япония
Год выхода: 2018
Жанр: Повседневность, комедия
Режиссер: Синдзи Такамацу
Автор оригинала: Иноэ Кэндзи / Inoue Kenji / 井上堅二



О фильме: У Иори Китахары начинается новая жизнь после поступления в престижный колледж в приморском городке Идзу-Сити. Парень снимает комнату у семьи Котэгава, владеющей магазином снаряжения для дайвинга Grand Blue. Но вся эта тема Иори не нравится: он до ужаса боится воды и предпочитает с морским делом не связываться. Однако, познакомившись с компанией дайверов, юноша меняет свои взгляды, пытается перебороть свой страх и открыть для себя бескрайние просторы необъятного океана!

Студия:


Продолжительность: ~ 00:24:00
Перевод: Любительский (многоголосый закадровый)
Озвучили: Студия АниДаб
Сборка контейнера: Eugeo

Файл
Формат: mkv
Качество: WEBRip 1080p
Видео: H.264; 1920x1080; ~ 3000 Kbps, 23.976fps; (8 bit)
Аудио 1: AAC 48000 Hz, 2.0, 192 kbps Язык Русский
Аудио 2: AC3 48000 Hz, 2.0, 224 kbps Язык Японский
Субтитры: ASS встроенные в составе контейнера Язык субтитров русский ; Перевод: [Sovet Romantica] - (risens team)



Инфо-файл
Общее
Уникальный идентификатор : 248523578261081316307530929456662326213 (0xBAF7E66EA71F8E3E8515AC52A4922BC5)
Полное имя : F:Kinozal[AniDub]_Grand_Blue_[1080p]Grand_Blue_[01]_[1080p_x264].mkv
Формат : Matroska
Версия формата : Version 2
Размер файла : 561 Мбайт
Продолжительность : 24 м.
Общий поток : 3229 Кбит/сек
Дата кодирования : UTC 2018-07-18 03:13:13
Программа кодирования : mkvmerge v5.7.0 ('The Whirlwind') built on Jul 29 2012 15:12:35
Библиотека кодирования : libebml v1.2.3 + libmatroska v1.3.0

Видео
Идентификатор : 1
Формат : AVC
Формат/Информация : Advanced Video Codec
Профиль формата : [email protected]
Параметр CABAC формата : Да
Параметр ReFrames формата : 4 кадра
Идентификатор кодека : V_MPEG4/ISO/AVC
Продолжительность : 24 м.
Ширина : 1920 пикселей
Высота : 1080 пикселей
Соотношение сторон : 16:9
Режим частоты кадров : Постоянный
Частота кадров : 23,976 кадра/сек
Цветовое пространство : YUV
Субдискретизация насыщенности : 4:2:0
Битовая глубина : 8 бит
Тип развёртки : Прогрессивная
Default : Да
Forced : Нет
Цветовой диапазон : Limited
Основные цвета : BT.709
Характеристики трансфера : BT.709
Коэффициенты матрицы : BT.709

Аудио #1
Идентификатор : 2
Формат : AAC
Формат/Информация : Advanced Audio Codec
Профиль формата : LC
Идентификатор кодека : A_AAC
Продолжительность : 24 м.
Каналы : 2 канала
Расположение каналов : Front: L R
Частота : 48,0 КГц
Метод сжатия : С потерями
Задержка видео : 9 мс.
Заголовок : Студия АниДаб
Язык : Russian
Default : Да
Forced : Да

Аудио #2
Идентификатор : 3
Формат : AC-3
Формат/Информация : Audio Coding 3
Расширение режима : CM (complete main)
Параметр Endianness формата : Big
Идентификатор кодека : A_AC3
Продолжительность : 24 м.
Вид битрейта : Постоянный
Битрейт : 224 Кбит/сек
Каналы : 2 канала
Расположение каналов : Front: L R
Частота : 48,0 КГц
Метод сжатия : С потерями
Размер потока : 38,9 Мбайт (7%)
Язык : Japanese
Default : Нет
Forced : Нет

Текст #1
Идентификатор : 4
Формат : ASS
Идентификатор кодека : S_TEXT/ASS
Идентификатор кодека/Информация : Advanced Sub Station Alpha
Метод сжатия : Без потерь
Заголовок : Sovetromantica
Язык : Russian
Default : Да
Forced : Нет

Текст #2
Идентификатор : 5
Формат : ASS
Идентификатор кодека : S_TEXT/ASS
Идентификатор кодека/Информация : Advanced Sub Station Alpha
Метод сжатия : Без потерь
Заголовок : (risens team)
Язык : Russian
Default : Нет
Forced : Нет

Общее
Уникальный идентификатор : 235070344133611523009095846446911381353 (0xB0D8E6C76BF3CB938F9049626B86DF69)
Полное имя : F:Kinozal[AniDub]_Grand_Blue_[1080p]Grand_Blue_[02]_[1080p_x264].mkv
Формат : Matroska
Версия формата : Version 2
Размер файла : 514 Мбайт
Продолжительность : 24 м.
Общий поток : 2958 Кбит/сек
Дата кодирования : UTC 2018-07-28 01:21:41
Программа кодирования : mkvmerge v5.7.0 ('The Whirlwind') built on Jul 29 2012 15:12:35
Библиотека кодирования : libebml v1.2.3 + libmatroska v1.3.0
Attachements : OpenSans-Semibold.ttf

Видео
Идентификатор : 1
Формат : AVC
Формат/Информация : Advanced Video Codec
Профиль формата : [email protected]
Параметр CABAC формата : Да
Параметр ReFrames формата : 4 кадра
Идентификатор кодека : V_MPEG4/ISO/AVC
Продолжительность : 24 м.
Ширина : 1920 пикселей
Высота : 1080 пикселей
Соотношение сторон : 16:9
Режим частоты кадров : Постоянный
Частота кадров : 23,976 кадра/сек
Цветовое пространство : YUV
Субдискретизация насыщенности : 4:2:0
Битовая глубина : 8 бит
Тип развёртки : Прогрессивная
Default : Да
Forced : Нет
Цветовой диапазон : Limited
Основные цвета : BT.709
Характеристики трансфера : BT.709
Коэффициенты матрицы : BT.709

Аудио #1
Идентификатор : 2
Формат : AAC
Формат/Информация : Advanced Audio Codec
Профиль формата : LC
Идентификатор кодека : A_AAC
Продолжительность : 24 м.
Каналы : 2 канала
Расположение каналов : Front: L R
Частота : 48,0 КГц
Метод сжатия : С потерями
Заголовок : Студия АниДаб
Язык : Russian
Default : Да
Forced : Да

Аудио #2
Идентификатор : 3
Формат : AC-3
Формат/Информация : Audio Coding 3
Расширение режима : CM (complete main)
Параметр Endianness формата : Big
Идентификатор кодека : A_AC3
Продолжительность : 24 м.
Вид битрейта : Постоянный
Битрейт : 224 Кбит/сек
Каналы : 2 канала
Расположение каналов : Front: L R
Частота : 48,0 КГц
Метод сжатия : С потерями
Размер потока : 38,9 Мбайт (8%)
Язык : Japanese
Default : Нет
Forced : Нет

Текст #1
Идентификатор : 4
Формат : ASS
Идентификатор кодека : S_TEXT/ASS
Идентификатор кодека/Информация : Advanced Sub Station Alpha
Метод сжатия : Без потерь
Заголовок : [Sovet Romantica]
Язык : Russian
Default : Да
Forced : Нет

Текст #2
Идентификатор : 5
Формат : ASS
Идентификатор кодека : S_TEXT/ASS
Идентификатор кодека/Информация : Advanced Sub Station Alpha
Метод сжатия : Без потерь
Заголовок : (risens team)
Язык : Russian
Default : Нет
Forced : Нет
Список серий
01. Deep Blue
02. Underwater
03. A New World
04. The Male Beauty Pageant
05. Too Late!
06. First Buddy
07. Doubles
08. Men's Cocktails
Скриншоты
 

Вложения

  • 11,9 KB Просмотры: 1
    Личеров 0
    Сидеров 0
    Файлов 8
    Объем 4,1 GB

Привет!

Мы группа людей которые решили помочь другим в решении их проблем, а так же пользователям с поиском самых свежих и качественных инфопродуктов. За 4 с небольшим месяца мы создали этот форум на который заходят ежедневно тысячи человек и посещаемость постоянно растёт. Мы создали панель лицензирования для защиты PHP скриптов от воровства и SEO панель для мониторинга наших сайтов и выбора верной стратегии их развития. Мы надеемся что то что мы создали пригодится Вам и возможно Вы поможете нам развиваться и совершенствоваться вместе с Вами.

Статистика форума

Темы
406.580
Сообщения
464.794
Пользователи
83.572
Новый пользователь
Кристина02

Приложения форума для iOS и Android


У ркн там нет власти ;)
Приватные разговоры
Помощь Пользователи
    Вы не присоединились ни к одной комнате.