За последнюю неделю опубликовано 28 новых материалов.
Инструкция новичку Путеводитель по форуму Прокси для Telegram Показать подсказки , это бомба!

Скачать Необъятный океан / Grand Blue [01-08 из 12] (2018) HDTVRip 720p от AniMedia | L бесплатно через торрент

  • Поучаствуй (в качестве покупателя) в любых пяти совместных покупках (кроме завершённых и "Моментальных") и получи группу "Новичок" навсегда -> ссылка на раздел
  • Получай до 480 рублей за каждого приглашенного пользователя!
    представляем Вам очередное расширение партнерской программы, подробности описаны тут -> ссылка
  • 90% материалов доступно к скачиванию после простой регистрации!
    Если же ты хочешь скачивать материалы без требования оставлять отзывы то получи группу "Новичок", 10 способов повышения описаны тут -> ссылка
  • К сожалению количество битых ссылок растет и мы уже не можем их оперативно восстанавливать поэтому просим помощи у каждого нашего пользователя.
    С сегодняшнего дня, за каждую восстановленную ссылку мы заплатим Вам.
    Подробнее тут -> ссылка
  • Перенесем твои заслуги с другого ресурса!
    Мы понимаем как сложно прокачивать аккаунты на форумах, вроде раскачал аккаунт, а тут появляется ресурс в 100 раз круче но тоже с системой прокачки и снова качать аккаунт...
    Предлагаем вам перенести Ваши заслуги на другом подобном ресурсе к нам.
    Подробности описаны тут -> ссылка
  • Вы можете получать по 2.5% с каждой покупки и продажи на маркете! Подробности в теме Партнёрская программа

Torrent_Bot

Торрент-Бот
Бот форума
4 Окт 2016
93
156
20
Информация о фильме
Название: Необъятный океан
Оригинальное название: Grand Blue (Grand Blue Dreaming)
Страна: Япония
Год выхода: 2018
Жанр: Повседневность, комедия
Режиссер: Синдзи Такамацу
Автор оригинала: Иноэ Кэндзи / Inoue Kenji / 井上堅二



О фильме: У Иори Китахары начинается новая жизнь после поступления в престижный колледж в приморском городке Идзу-Сити. Парень снимает комнату у семьи Котэгава, владеющей магазином снаряжения для дайвинга Grand Blue. Но вся эта тема Иори не нравится: он до ужаса боится воды и предпочитает с морским делом не связываться. Однако, познакомившись с компанией дайверов, юноша меняет свои взгляды, пытается перебороть свой страх и открыть для себя бескрайние просторы необъятного океана!

Студия:


Продолжительность: ~ 00:24:00
Перевод: Любительский (многоголосый закадровый)
Озвучили: FREYA & Satsuki & Morin
Сборка контейнера: Eugeo


Файл
Формат: mp4
Качество: HDTVRip 720p
Видео: H.264; 1280x720; ~ 2000 Kbps, 23.976fps; (8 bit)
Аудио 1: AAC 48000 Hz, 2.0, 192 kbps Язык Русский
Аудио 2: AAC 48000 Hz, 2.0, 192 kbps Язык Японский
Субтитры: (внешние ASS) Язык субтитров русский ; Перевод: (risens team)


Инфо-файл
Общее
Полное имя : F:KinozalGrand_Blue_[AniMedia]Grand_Blue_[01]_(FREYA & Satsuki & Morin).ass
Размер файла : 40,0 Кбайт

Общее
Полное имя : F:KinozalGrand_Blue_[AniMedia]Grand_Blue_[01]_(FREYA & Satsuki & Morin).mp4
Формат : MPEG-4
Профиль формата : Base Media
Идентификатор кодека : isom
Размер файла : 405 Мбайт
Продолжительность : 24 м.
Режим общего битрейта : Переменный
Общий поток : 2317 Кбит/сек
Дата кодирования : UTC 2018-07-13 21:40:39
Дата пометки : UTC 2018-07-13 21:40:39
Программа кодирования : Yamb 2.1.0.0 [Yamb » Yet Another MP4Box UI]

Видео
Идентификатор : 1
Формат : AVC
Формат/Информация : Advanced Video Codec
Профиль формата : Main@L4.1
Параметр CABAC формата : Да
Параметр ReFrames формата : 4 кадра
Идентификатор кодека : avc1
Идентификатор кодека/Информация : Advanced Video Coding
Продолжительность : 24 м.
Битрейт : 1919 Кбит/сек
Максимальный битрейт : 16,6 Мбит/сек
Ширина : 1280 пикселей
Высота : 720 пикселей
Соотношение сторон : 16:9
Режим частоты кадров : Постоянный
Частота кадров : 23,976 кадра/сек
Цветовое пространство : YUV
Субдискретизация насыщенности : 4:2:0
Битовая глубина : 8 бит
Тип развёртки : Прогрессивная
Бит/(Пиксели*Кадры) : 0.087
Размер потока : 336 Мбайт (83%)
Библиотека кодирования : x264 core 155 r2901 7d0ff22
Настройки программы : cabac=1 / ref=3 / deblock=1:0:0 / analyse=0x1:0x111 / me=hex / subme=7 / psy=1 / psy_rd=1.00:0.00 / mixed_ref=1 / me_range=16 / chroma_me=1 / trellis=1 / 8x8dct=0 / cqm=0 / deadzone=21,11 / fast_pskip=1 / chroma_qp_offset=-2 / threads=18 / lookahead_threads=3 / sliced_threads=0 / nr=0 / decimate=1 / interlaced=0 / bluray_compat=0 / constrained_intra=0 / bframes=3 / b_pyramid=2 / b_adapt=1 / b_bias=0 / direct=1 / weightb=1 / open_gop=0 / weightp=2 / keyint=240 / keyint_min=1 / scenecut=40 / intra_refresh=0 / rc_lookahead=40 / rc=crf / mbtree=1 / crf=20.0 / qcomp=0.60 / qpmin=0 / qpmax=69 / qpstep=4 / ip_ratio=1.40 / aq=1:1.50
Дата кодирования : UTC 2018-07-14 08:22:52
Дата пометки : UTC 2018-07-13 21:40:44
Цветовой диапазон : Limited
Основные цвета : BT.709
Характеристики трансфера : BT.709
Коэффициенты матрицы : BT.709

Аудио #1
Идентификатор : 2
Формат : AAC
Формат/Информация : Advanced Audio Codec
Профиль формата : LC
Идентификатор кодека : 40
Продолжительность : 24 м.
Вид битрейта : Переменный
Битрейт : 192 Кбит/сек
Максимальный битрейт : 197 Кбит/сек
Каналы : 2 канала
Расположение каналов : Front: L R
Частота : 48,0 КГц
Метод сжатия : С потерями
Размер потока : 33,6 Мбайт (8%)
Заголовок : FREYA & Satsuki & Morin
Язык : Russian
Дата кодирования : UTC 2018-07-13 21:40:43
Дата пометки : UTC 2018-07-13 21:40:44

Аудио #2
Идентификатор : 3
Формат : AAC
Формат/Информация : Advanced Audio Codec
Профиль формата : LC
Идентификатор кодека : 40
Продолжительность : 24 м.
Вид битрейта : Переменный
Битрейт : 200 Кбит/сек
Максимальный битрейт : 252 Кбит/сек
Каналы : 2 канала
Расположение каналов : Front: L R
Частота : 48,0 КГц
Метод сжатия : С потерями
Размер потока : 35,0 Мбайт (9%)
Язык : Japanese
Дата кодирования : UTC 2018-07-13 21:40:43
Дата пометки : UTC 2018-07-13 21:40:44
Список серий
01. Deep Blue
02. Underwater
03. A New World
04. The Male Beauty Pageant
05. Too Late!
06. First Buddy
07. Doubles
08. Men's Cocktails
Скриншоты
 

Вложения

  • 16,9 KB Просмотры: 0
    Личеров 0
    Сидеров 0
    Файлов 16
    Объем 2,9 GB

Привет!

Мы группа людей которые решили помочь другим в решении их проблем, а так же пользователям с поиском самых свежих и качественных инфопродуктов. За 4 с небольшим месяца мы создали этот форум на который заходят ежедневно тысячи человек и посещаемость постоянно растёт. Мы создали панель лицензирования для защиты PHP скриптов от воровства и SEO панель для мониторинга наших сайтов и выбора верной стратегии их развития. Мы надеемся что то что мы создали пригодится Вам и возможно Вы поможете нам развиваться и совершенствоваться вместе с Вами.

Статистика форума

Темы
406.550
Сообщения
464.706
Пользователи
83.405
Новый пользователь
Pumbaardian

Приложения форума для iOS и Android


У ркн там нет власти ;)
Приватные разговоры
Помощь Пользователи
    Вы не присоединились ни к одной комнате.