За последнюю неделю опубликовано 91 новых материалов.
Инструкция новичку Путеводитель по форуму Прокси для Telegram Показать подсказки , это бомба!

Скачать Неглубокая могила / Shallow Grave (1994) BDRip 1080p | P, P2, A бесплатно через торрент

  • Поучаствуй (в качестве покупателя) в любых пяти совместных покупках (кроме завершённых и "Моментальных") и получи группу "Новичок" навсегда -> ссылка на раздел
  • Получай до 480 рублей за каждого приглашенного пользователя!
    представляем Вам очередное расширение партнерской программы, подробности описаны тут -> ссылка
  • 90% материалов доступно к скачиванию после простой регистрации!
    Если же ты хочешь скачивать материалы без требования оставлять отзывы то получи группу "Новичок", 10 способов повышения описаны тут -> ссылка
  • К сожалению количество битых ссылок растет и мы уже не можем их оперативно восстанавливать поэтому просим помощи у каждого нашего пользователя.
    С сегодняшнего дня, за каждую восстановленную ссылку мы заплатим Вам.
    Подробнее тут -> ссылка
  • Перенесем твои заслуги с другого ресурса!
    Мы понимаем как сложно прокачивать аккаунты на форумах, вроде раскачал аккаунт, а тут появляется ресурс в 100 раз круче но тоже с системой прокачки и снова качать аккаунт...
    Предлагаем вам перенести Ваши заслуги на другом подобном ресурсе к нам.
    Подробности описаны тут -> ссылка
  • Вы можете получать по 2.5% с каждой покупки и продажи на маркете! Подробности в теме Партнёрская программа
Если Вы не хотите скачивать, Вы всегда можетепосмотретьонлайн, просто нажмите кнопку ниже :

Открыть плеер

Torrent_Bot

Торрент-Бот
Бот форума
4 Окт 2016
102
152
20



Информация о фильме
Русское название: Неглубокая могила
Оригинальное название: Shallow Grave
Год выпуска: 1994
Жанр: триллер, криминал
Актеры: Эван МакГрегор, Кристофер Экклстон, Керри Фокс, Кен Стотт, Кит Аллен, Колин МакКреди, Виктория Нэйрн, Гари Льюис, Джин Мэри Коффи, Питер Муллан

О фильме:
В квартире трех сумасбродных молодых людей поселился замечательный сосед, оставивший после себя в наследство свое разлагающееся тело и чемодан, полный денег. Друзья чемодан решают оставить себе, а от трупа просто избавиться. Труп оказался не последний, а у денег нашлись и другие хозяева, которые были настроены их вернуть любой ценой.



Страна: Великобритания
Продолжительность: 01:32:51
Перевод: Профессиональный (двухголосый, закадровый)
2x Профессиональный (многоголосый, закадровый)
Авторский (Иванов Михаил)

Файл
Формат: .mkv
Качество: BDRip 1080p
Видео: AVC, High@L4.1, 1920x1040, 23.976 fps, 8600 kbps
Аудио №1: Russian; AC3; 48.0 KHz; 384 Kbps; 2 ch |Профессиональный (двухголосый, закадровый), Екатеринбург Арт| текcт читали: Михаил Тихонов и Наталья Казначеева
Аудио №2: Russian; AC3; 48.0 KHz; 192 Kbps; 2 ch |Профессиональный (многоголосый, закадровый), Премьер Видео| текст читали: Алексей Борзунов, Андрей Градов + женщина
Аудио №3: Russian; AC3; 48.0 KHz; 192 Kbps; 2 ch |Профессиональный (многоголосый, закадровый), Киномания (?)|
Аудио №4: Russian; AC3; 48.0 KHz; 192 Kbps; 2 ch |Авторский (Иванов Михаил)|
Аудио №5: English; AC3; 48.0 KHz; 384 Kbps; 2 ch |Оригинал|
Субтитры №1: Russian
Субтитры №2: English; Criterion
Субтитры №3: English; UK

M.I
General
Unique ID : 193354348259258782666447746474194642489 (0x9176B16323B51EC29395574948B62639)
Complete name : D:КИНОNeglubokaja.Mogila.(1994).BDRip1080P.[-=DoMiNo=-].mkv
Format : Matroska
Format version : Version 4 / Version 2
File size : 6.45 GiB
Duration : 1h 32mn
Overall bit rate : 9 942 Kbps
Movie name : RIP_[-=DoMiNo=-]
Encoded date : UTC 2014-05-18 02:21:17
Writing application : mkvmerge v6.9.1 ('Blue Panther') 64bit built on Apr 18 2014 18:23:38
Writing library : libebml v1.3.0 + libmatroska v1.4.1

Video
ID : 1
Format : AVC
Format/Info : Advanced Video Codec
Format profile : High@L4.1
Format settings, CABAC : Yes
Format settings, ReFrames : 4 frames
Codec ID : V_MPEG4/ISO/AVC
Duration : 1h 32mn
Bit rate : 8 600 Kbps
Width : 1 920 pixels
Height : 1 040 pixels
Display aspect ratio : 1.85:1
Frame rate mode : Constant
Frame rate : 23.976 fps
Color space : YUV
Chroma subsampling : 4:2:0
Bit depth : 8 bits
Scan type : Progressive
Bits/(Pixel*Frame) : 0.180
Stream size : 5.45 GiB (84%)
Writing library : x264 core 130 r2273 b3065e6
Encoding settings : cabac=1 / ref=4 / deblock=1:-3:-3 / analyse=0x3:0x133 / me=umh / subme=11 / psy=1 / psy_rd=1.00:0.50 / mixed_ref=1 / me_range=32 / chroma_me=1 / trellis=2 / 8x8dct=1 / cqm=0 / deadzone=21,11 / fast_pskip=0 / chroma_qp_offset=-3 / threads=16 / lookahead_threads=4 / sliced_threads=0 / slices=4 / nr=0 / decimate=1 / interlaced=0 / bluray_compat=0 / constrained_intra=0 / bframes=6 / b_pyramid=2 / b_adapt=2 / b_bias=0 / direct=3 / weightb=1 / open_gop=0 / weightp=2 / keyint=240 / keyint_min=3 / scenecut=40 / intra_refresh=0 / rc_lookahead=150 / rc=2pass / mbtree=1 / bitrate=8600 / ratetol=1.0 / qcomp=0.70 / qpmin=10 / qpmax=51 / qpstep=4 / cplxblur=20.0 / qblur=0.5 / ip_ratio=1.40 / aq=2:2.00
Default : Yes
Forced : No

Audio #1
ID : 2
Format : AC-3
Format/Info : Audio Coding 3
Mode extension : CM (complete main)
Format settings, Endianness : Big
Codec ID : A_AC3
Duration : 1h 32mn
Bit rate mode : Constant
Bit rate : 384 Kbps
Channel(s) : 2 channels
Channel positions : Front: L R
Sampling rate : 48.0 KHz
Bit depth : 16 bits
Compression mode : Lossy
Stream size : 255 MiB (4%)
Title : P2 Екатеринбург Арт
Language : Russian
Default : Yes
Forced : No

Audio #2
ID : 3
Format : AC-3
Format/Info : Audio Coding 3
Mode extension : CM (complete main)
Format settings, Endianness : Big
Codec ID : A_AC3
Duration : 1h 32mn
Bit rate mode : Constant
Bit rate : 192 Kbps
Channel(s) : 2 channels
Channel positions : Front: L R
Sampling rate : 48.0 KHz
Bit depth : 16 bits
Compression mode : Lossy
Stream size : 128 MiB (2%)
Title : MVO (Premier)
Language : Russian
Default : No
Forced : No

Audio #3
ID : 4
Format : AC-3
Format/Info : Audio Coding 3
Mode extension : CM (complete main)
Format settings, Endianness : Big
Codec ID : A_AC3
Duration : 1h 32mn
Bit rate mode : Constant
Bit rate : 192 Kbps
Channel(s) : 2 channels
Channel positions : Front: L R
Sampling rate : 48.0 KHz
Bit depth : 16 bits
Compression mode : Lossy
Stream size : 128 MiB (2%)
Title : MVO (Kinomania) #
Language : Russian
Default : No
Forced : No

Audio #4
ID : 5
Format : AC-3
Format/Info : Audio Coding 3
Mode extension : CM (complete main)
Format settings, Endianness : Big
Codec ID : A_AC3
Duration : 1h 32mn
Bit rate mode : Constant
Bit rate : 192 Kbps
Channel(s) : 2 channels
Channel positions : Front: L R
Sampling rate : 48.0 KHz
Bit depth : 16 bits
Compression mode : Lossy
Stream size : 128 MiB (2%)
Title : AVO (Ivanov)
Language : Russian
Default : No
Forced : No

Audio #5
ID : 6
Format : AC-3
Format/Info : Audio Coding 3
Mode extension : CM (complete main)
Format settings, Endianness : Big
Codec ID : A_AC3
Duration : 1h 32mn
Bit rate mode : Constant
Bit rate : 384 Kbps
Channel(s) : 2 channels
Channel positions : Front: L R
Sampling rate : 48.0 KHz
Bit depth : 16 bits
Compression mode : Lossy
Stream size : 255 MiB (4%)
Title : Original_ENG
Language : English
Default : No
Forced : No

Text #1
ID : 7
Format : UTF-8
Codec ID : S_TEXT/UTF8
Codec ID/Info : UTF-8 Plain Text
Language : Russian
Default : Yes
Forced : No

Text #2
ID : 8
Format : UTF-8
Codec ID : S_TEXT/UTF8
Codec ID/Info : UTF-8 Plain Text
Title : Criterion
Language : English
Default : No
Forced : No

Text #3
ID : 9
Format : UTF-8
Codec ID : S_TEXT/UTF8
Codec ID/Info : UTF-8 Plain Text
Title : UK
Language : English
Default : No
Forced : No

Menu
00:00:00.000 : en:"Not Today, thank you"
00:06:59.461 : en:Hugo
00:13:57.462 : en:Temptation
00:19:40.346 : en:No Human Angle
00:24:23.545 : en:"This Is It"
00:35:44.059 : en:Strip the Willow
00:41:47.797 : en:"Happiness is"
00:49:22.001 : en:The Loft
00:55:56.186 : en:"Alive, Dead. Dead, Alive"
01:04:13.099 : en:"In the Event of My Death"
01:14:19.872 : en:"Triple Corpse Horror"
Скриншоты
 

Вложения

  • 17,1 KB Просмотры: 1
    Личеров 0
    Сидеров 0
    Файлов 1
    Объем 6,4 GB

Привет!

Мы группа людей которые решили помочь другим в решении их проблем, а так же пользователям с поиском самых свежих и качественных инфопродуктов. За 4 с небольшим месяца мы создали этот форум на который заходят ежедневно тысячи человек и посещаемость постоянно растёт. Мы создали панель лицензирования для защиты PHP скриптов от воровства и SEO панель для мониторинга наших сайтов и выбора верной стратегии их развития. Мы надеемся что то что мы создали пригодится Вам и возможно Вы поможете нам развиваться и совершенствоваться вместе с Вами.

Статистика форума

Темы
404.556
Сообщения
461.386
Пользователи
80.128
Новый пользователь
Wegi

Приложения форума для iOS и Android


У ркн там нет власти ;)
Приватные разговоры
Помощь Пользователи
    Вы не присоединились ни к одной комнате.