За последнюю неделю опубликовано 30 новых материалов.
Инструкция новичку Путеводитель по форуму Прокси для Telegram Показать подсказки , это бомба!

Скачать Небесный верблюд (2015) WEB-DL 1080p | iTunes бесплатно через торрент

  • Поучаствуй (в качестве покупателя) в любых пяти совместных покупках (кроме завершённых и "Моментальных") и получи группу "Новичок" навсегда -> ссылка на раздел
  • Получай до 480 рублей за каждого приглашенного пользователя!
    представляем Вам очередное расширение партнерской программы, подробности описаны тут -> ссылка
  • 90% материалов доступно к скачиванию после простой регистрации!
    Если же ты хочешь скачивать материалы без требования оставлять отзывы то получи группу "Новичок", 10 способов повышения описаны тут -> ссылка
  • К сожалению количество битых ссылок растет и мы уже не можем их оперативно восстанавливать поэтому просим помощи у каждого нашего пользователя.
    С сегодняшнего дня, за каждую восстановленную ссылку мы заплатим Вам.
    Подробнее тут -> ссылка
  • Перенесем твои заслуги с другого ресурса!
    Мы понимаем как сложно прокачивать аккаунты на форумах, вроде раскачал аккаунт, а тут появляется ресурс в 100 раз круче но тоже с системой прокачки и снова качать аккаунт...
    Предлагаем вам перенести Ваши заслуги на другом подобном ресурсе к нам.
    Подробности описаны тут -> ссылка
  • Вы можете получать по 2.5% с каждой покупки и продажи на маркете! Подробности в теме Партнёрская программа
Если Вы не хотите скачивать, Вы всегда можетепосмотретьонлайн, просто нажмите кнопку ниже :

Открыть плеер

Torrent_Bot

Торрент-Бот
Бот форума
4 Окт 2016
93
160
20

Информация о фильме
Название: Небесный верблюд
Оригинальное название: Небесный верблюд
Год выхода: 2015
Жанр: детский, семейный, приключения
Режиссер: Юрий Фетинг
В ролях: Михаил Гасанов, Виктор Сухоруков, Пётр Новиков, Ирина Хургунова, Данзан Бадрашкиев, Цеден Конаев, Батр Манджиев, Баира Манджиева, Виталий Махов

О фильме: Калмыки говорят, что облако в виде верблюда приносит удачу. Под таким облаком родился белый верблюжонок Алтынка. На съемках фильма случайно гибнет белый верблюжонок. Срочно нужен дублер. Киноадминистратор приезжает на дальнюю степную стоянку бедного чабана Доржи. Алтынка продан. Верблюдица-мать бежит в степь на поиски своего сына. 12-летний Баир — сын Доржи садится на старый папин мотоцикл и отправляется в степь на поиски верблюдицы.



Выпущено: Россия, Монголия / Все хорошо
Продолжительность: 01:26:33
Озвучивание: Оригинальное | iTunes

Файл
Формат: MKV
Качество: WEB-DL 1080p
Видео: MPEG-4 AVC, 4502 Kb/s, 1920x804
Аудио: Russian: 48 kHz, Advanced Audio Codec, 2/0 (L, R) ch, ~160 Kbps
Суьтитры: Нет
Дополнительно: Сохранены оригинальные чаптеры.

Релиз от:

MediaInfo:
Video
ID : 1
Format : AVC
Format/Info : Advanced Video Codec
Format profile : [email protected]
Format settings : CABAC / 5 Ref Frames
Format settings, CABAC : Yes
Format settings, Reference : 5 frames
Codec ID : V_MPEG4/ISO/AVC
Duration : 1 h 26 min
Bit rate : 4 502 kb/s
Width : 1 920 pixels
Height : 804 pixels
Display aspect ratio : 2.40:1
Frame rate mode : Constant
Frame rate : 25.000 FPS
Color space : YUV
Chroma subsampling : 4:2:0
Bit depth : 8 bits
Scan type : Progressive
Bits/(Pixel*Frame) : 0.117
Stream size : 2.72 GiB (97%)
Title : HEAVENLY_CAMEL_2015_WEB-DL_1080p-BLUEBIRD
Language : English
Default : Yes
Forced : No
Color range : Limited
Color primaries : BT.709
Transfer characteristics : BT.709
Matrix coefficients : BT.709

Audio
ID : 2
Format : AAC LC
Format/Info : Advanced Audio Codec Low Complexity
Codec ID : A_AAC-2
Duration : 1 h 26 min
Bit rate : 127 kb/s
Channel(s) : 2 channels
Channel layout : L R
Sampling rate : 48.0 kHz
Frame rate : 46.875 FPS (1024 SPF)
Compression mode : Lossy
Delay relative to video : -40 ms
Stream size : 78.5 MiB (3%)
Title : [ORIGINAL] AAC 2.0 @ 160 kbps
Language : Russian
Default : Yes
Forced : No

Menu
00:00:00.000 : en:Глава 1
00:09:14.680 : en:Глава 2
00:17:00.360 : en:Глава 3
00:24:32.840 : en:Глава 4
00:31:18.520 : en:Глава 5
00:38:07.280 : en:Глава 6
00:43:37.680 : en:Глава 7
00:52:11.479 : en:Глава 8
00:59:44.999 : en:Глава 9
01:05:54.119 : en:Глава 10
01:13:59.159 : en:Глава 11
Скриншоты

 

Вложения

  • 15 KB Просмотры: 0
    Личеров 0
    Сидеров 0
    Файлов 1
    Объем 2,8 GB

Привет!

Мы группа людей которые решили помочь другим в решении их проблем, а так же пользователям с поиском самых свежих и качественных инфопродуктов. За 4 с небольшим месяца мы создали этот форум на который заходят ежедневно тысячи человек и посещаемость постоянно растёт. Мы создали панель лицензирования для защиты PHP скриптов от воровства и SEO панель для мониторинга наших сайтов и выбора верной стратегии их развития. Мы надеемся что то что мы создали пригодится Вам и возможно Вы поможете нам развиваться и совершенствоваться вместе с Вами.

Статистика форума

Темы
406.605
Сообщения
465.025
Пользователи
84.385
Новый пользователь
SomeCat123

Приложения форума для iOS и Android


У ркн там нет власти ;)
Приватные разговоры
Помощь Пользователи
    Вы не присоединились ни к одной комнате.