За последнюю неделю опубликовано 91 новых материалов.
Инструкция новичку Путеводитель по форуму Прокси для Telegram Показать подсказки , это бомба!

Скачать Небесные волки: Сириус-егерь / Sirius the Jaeger [01-12 из 12] (2018) HDTVRip 720p от AniDUB | L бесплатно через торрент

  • Поучаствуй (в качестве покупателя) в любых пяти совместных покупках (кроме завершённых и "Моментальных") и получи группу "Новичок" навсегда -> ссылка на раздел
  • Получай до 480 рублей за каждого приглашенного пользователя!
    представляем Вам очередное расширение партнерской программы, подробности описаны тут -> ссылка
  • 90% материалов доступно к скачиванию после простой регистрации!
    Если же ты хочешь скачивать материалы без требования оставлять отзывы то получи группу "Новичок", 10 способов повышения описаны тут -> ссылка
  • К сожалению количество битых ссылок растет и мы уже не можем их оперативно восстанавливать поэтому просим помощи у каждого нашего пользователя.
    С сегодняшнего дня, за каждую восстановленную ссылку мы заплатим Вам.
    Подробнее тут -> ссылка
  • Перенесем твои заслуги с другого ресурса!
    Мы понимаем как сложно прокачивать аккаунты на форумах, вроде раскачал аккаунт, а тут появляется ресурс в 100 раз круче но тоже с системой прокачки и снова качать аккаунт...
    Предлагаем вам перенести Ваши заслуги на другом подобном ресурсе к нам.
    Подробности описаны тут -> ссылка
  • Вы можете получать по 2.5% с каждой покупки и продажи на маркете! Подробности в теме Партнёрская программа

Torrent_Bot

Торрент-Бот
Бот форума
4 Окт 2016
102
152
20
Информация о фильме
Название: Небесные волки: Сириус-егерь
Оригинальное название: Sirius the Jaeger
Страна: Япония
Год выхода: 2018
Жанр: Приключения, фэнтези, триллер
Режиссер: Масахиро Андо


О фильме: Токио, 1930 год. В имперской столице появляется таинственная группа людей с музыкальными инструментами наперевес. Этих людей прозвали «егерями», охотниками на вампиров. Среди них особенно выделялся беззаботный паренёк Юлий — оборотень, чья родная деревня была уничтожена вампирами. Цель егерей — заполучить ковчег Сириуса — мистический артефакт, за который люди готовы биться не на жизнь а на смерть.

Студия:


Продолжительность: ~ 00:24:00
Перевод: Любительский (многоголосый закадровый)
Озвучка: JAM, Trina_D, Jade
Тайминг и работа со звуком: Lonty
Сборка контейнера: Eugeo


Файл
Формат: mp4
Качество: HDTVRip 720p
Видео: H.264; 1280x720; ~ 2000 Kbps, 23.976fps; (8 bit)
Аудио 1: AAC 48000 Hz, 2.0, 192 kbps Язык Русский
Аудио 2: AAC 48000 Hz, 2.0, 209 kbps Язык Японский
Субтитры: (внешние ASS) Язык субтитров русский ; Перевод: Zero [Уголок Анжи] - [YakuSub Studio]


Инфо-файл
Общее
Полное имя : F:Kinozal[AniDub]_Tenrou_-_Sirius_the_Jaeger_[720p]_[JAM, Trina_D, Jade]Tenrou_Sirius_the_Jaeger_[01]_(JAM, Trina_D, Jade).ass
Размер файла : 32,5 Кбайт

Общее
Полное имя : F:Kinozal[AniDub]_Tenrou_-_Sirius_the_Jaeger_[720p]_[JAM, Trina_D, Jade]Tenrou_Sirius_the_Jaeger_[01]_(JAM, Trina_D, Jade).mp4
Формат : MPEG-4
Профиль формата : Base Media
Идентификатор кодека : isom
Размер файла : 420 Мбайт
Продолжительность : 24 м.
Режим общего битрейта : Переменный
Общий поток : 2446 Кбит/сек
Дата кодирования : UTC 2018-07-16 00:52:21
Дата пометки : UTC 2018-07-16 00:52:21
Программа кодирования : Yamb 2.1.0.0 [Yamb » Yet Another MP4Box UI]

Видео
Идентификатор : 1
Формат : AVC
Формат/Информация : Advanced Video Codec
Профиль формата : High@L4.1
Параметр CABAC формата : Да
Параметр ReFrames формата : 4 кадра
Идентификатор кодека : avc1
Идентификатор кодека/Информация : Advanced Video Coding
Продолжительность : 24 м.
Битрейт : 2060 Кбит/сек
Максимальный битрейт : 12,5 Мбит/сек
Ширина : 1280 пикселей
Высота : 720 пикселей
Соотношение сторон : 16:9
Режим частоты кадров : Постоянный
Частота кадров : 23,976 кадра/сек
Цветовое пространство : YUV
Субдискретизация насыщенности : 4:2:0
Битовая глубина : 8 бит
Тип развёртки : Прогрессивная
Бит/(Пиксели*Кадры) : 0.093
Размер потока : 354 Мбайт (84%)
Библиотека кодирования : x264 core 129 r2245+729M 1a52e03
Настройки программы : cabac=1 / ref=4 / deblock=1:1:-1 / analyse=0x3:0x113 / me=umh / subme=9 / psy=1 / fade_compensate=0.00 / psy_rd=1.00:0.00 / mixed_ref=1 / me_range=24 / chroma_me=1 / trellis=2 / 8x8dct=1 / cqm=0 / deadzone=21,11 / fast_pskip=1 / chroma_qp_offset=-2 / threads=8 / lookahead_threads=1 / sliced_threads=0 / nr=0 / decimate=1 / interlaced=0 / bluray_compat=0 / constrained_intra=0 / fgo=0 / bframes=9 / b_pyramid=2 / b_adapt=2 / b_bias=0 / direct=1 / weightb=1 / open_gop=0 / weightp=2 / keyint=240 / keyint_min=24 / scenecut=40 / intra_refresh=0 / rc=crf / mbtree=0 / crf=18.5 / qcomp=0.72 / qpmin=0 / qpmax=69 / qpstep=4 / ip_ratio=1.40 / pb_ratio=1.30 / aq=1:0.85
Дата кодирования : UTC 2018-07-15 02:06:08
Дата пометки : UTC 2018-07-16 00:52:24
Цветовой диапазон : Limited
Основные цвета : BT.709
Характеристики трансфера : BT.709
Коэффициенты матрицы : BT.709

Аудио #1
Идентификатор : 2
Формат : AAC
Формат/Информация : Advanced Audio Codec
Профиль формата : LC
Идентификатор кодека : 40
Продолжительность : 23 м.
Вид битрейта : Переменный
Битрейт : 192 Кбит/сек
Максимальный битрейт : 199 Кбит/сек
Каналы : 2 канала
Расположение каналов : Front: L R
Частота : 48,0 КГц
Метод сжатия : С потерями
Размер потока : 32,5 Мбайт (8%)
Заголовок : JAM, Trina_D, Jade
Язык : Russian
Дата кодирования : UTC 2018-07-16 00:52:22
Дата пометки : UTC 2018-07-16 00:52:24

Аудио #2
Идентификатор : 3
Формат : AAC
Формат/Информация : Advanced Audio Codec
Профиль формата : LC
Идентификатор кодека : 40
Продолжительность : 24 м.
Вид битрейта : Переменный
Битрейт : 192 Кбит/сек
Максимальный битрейт : 240 Кбит/сек
Каналы : 2 канала
Расположение каналов : Front: L R
Частота : 48,0 КГц
Метод сжатия : С потерями
Размер потока : 32,8 Мбайт (8%)
Язык : Japanese
Дата кодирования : UTC 2018-07-16 00:52:23
Дата пометки : UTC 2018-07-16 00:52:24

Общее
Полное имя : F:Kinozal[AniDub]_Tenrou_-_Sirius_the_Jaeger_[720p]_[JAM, Trina_D, Jade]Tenrou_Sirius_the_Jaeger_[02]_(JAM, Trina_D, Jade).ass
Размер файла : 37,5 Кбайт

Общее
Полное имя : F:Kinozal[AniDub]_Tenrou_-_Sirius_the_Jaeger_[720p]_[JAM, Trina_D, Jade]Tenrou_Sirius_the_Jaeger_[02]_(JAM, Trina_D, Jade).mp4
Формат : MPEG-4
Профиль формата : Base Media
Идентификатор кодека : isom
Размер файла : 367 Мбайт
Продолжительность : 24 м.
Режим общего битрейта : Переменный
Общий поток : 2138 Кбит/сек
Дата кодирования : UTC 2018-07-31 23:12:57
Дата пометки : UTC 2018-07-31 23:12:57
Программа кодирования : Yamb 2.1.0.0 [Yamb » Yet Another MP4Box UI]

Видео
Идентификатор : 1
Формат : AVC
Формат/Информация : Advanced Video Codec
Профиль формата : Main@L4.1
Параметр CABAC формата : Да
Параметр ReFrames формата : 4 кадра
Идентификатор кодека : avc1
Идентификатор кодека/Информация : Advanced Video Coding
Продолжительность : 24 м.
Битрейт : 1754 Кбит/сек
Максимальный битрейт : 18,6 Мбит/сек
Ширина : 1280 пикселей
Высота : 720 пикселей
Соотношение сторон : 16:9
Режим частоты кадров : Постоянный
Частота кадров : 23,976 кадра/сек
Цветовое пространство : YUV
Субдискретизация насыщенности : 4:2:0
Битовая глубина : 8 бит
Тип развёртки : Прогрессивная
Бит/(Пиксели*Кадры) : 0.079
Размер потока : 301 Мбайт (82%)
Библиотека кодирования : x264 core 155 r2901 7d0ff22
Настройки программы : cabac=1 / ref=3 / deblock=1:0:0 / analyse=0x1:0x111 / me=hex / subme=7 / psy=1 / psy_rd=1.00:0.00 / mixed_ref=1 / me_range=16 / chroma_me=1 / trellis=1 / 8x8dct=0 / cqm=0 / deadzone=21,11 / fast_pskip=1 / chroma_qp_offset=-2 / threads=18 / lookahead_threads=3 / sliced_threads=0 / nr=0 / decimate=1 / interlaced=0 / bluray_compat=0 / constrained_intra=0 / bframes=3 / b_pyramid=2 / b_adapt=1 / b_bias=0 / direct=1 / weightb=1 / open_gop=0 / weightp=2 / keyint=240 / keyint_min=1 / scenecut=40 / intra_refresh=0 / rc_lookahead=40 / rc=crf / mbtree=1 / crf=20.0 / qcomp=0.60 / qpmin=0 / qpmax=69 / qpstep=4 / ip_ratio=1.40 / aq=1:1.50
Дата кодирования : UTC 2018-07-20 09:44:14
Дата пометки : UTC 2018-07-31 23:13:06
Цветовой диапазон : Limited
Основные цвета : BT.709
Характеристики трансфера : BT.709
Коэффициенты матрицы : BT.709

Аудио #1
Идентификатор : 2
Формат : AAC
Формат/Информация : Advanced Audio Codec
Профиль формата : LC
Идентификатор кодека : 40
Продолжительность : 23 м.
Вид битрейта : Переменный
Битрейт : 192 Кбит/сек
Максимальный битрейт : 199 Кбит/сек
Каналы : 2 канала
Расположение каналов : Front: L R
Частота : 48,0 КГц
Метод сжатия : С потерями
Размер потока : 32,5 Мбайт (9%)
Заголовок : JAM, Trina_D, Jade
Язык : Russian
Дата кодирования : UTC 2018-07-31 23:13:01
Дата пометки : UTC 2018-07-31 23:13:06

Аудио #2
Идентификатор : 3
Формат : AAC
Формат/Информация : Advanced Audio Codec
Профиль формата : LC
Идентификатор кодека : 40
Продолжительность : 24 м.
Вид битрейта : Переменный
Битрейт : 188 Кбит/сек
Максимальный битрейт : 250 Кбит/сек
Каналы : 2 канала
Расположение каналов : Front: L R
Частота : 48,0 КГц
Метод сжатия : С потерями
Размер потока : 32,3 Мбайт (9%)
Язык : Japanese
Дата кодирования : UTC 2018-07-31 23:13:02
Дата пометки : UTC 2018-07-31 23:13:06

Общее
Полное имя : F:Kinozal[AniDub]_Tenrou_-_Sirius_the_Jaeger_[720p]_[JAM, Trina_D, Jade]Tenrou_Sirius_the_Jaeger_[03]_(JAM, Trina_D, Jade).ass
Размер файла : 30,3 Кбайт

Общее
Полное имя : F:Kinozal[AniDub]_Tenrou_-_Sirius_the_Jaeger_[720p]_[JAM, Trina_D, Jade]Tenrou_Sirius_the_Jaeger_[03]_(JAM, Trina_D, Jade).mp4
Формат : MPEG-4
Профиль формата : Base Media
Идентификатор кодека : isom
Размер файла : 411 Мбайт
Продолжительность : 24 м.
Режим общего битрейта : Переменный
Общий поток : 2392 Кбит/сек
Дата кодирования : UTC 2018-07-31 23:20:15
Дата пометки : UTC 2018-07-31 23:20:15
Программа кодирования : Yamb 2.1.0.0 [Yamb » Yet Another MP4Box UI]

Видео
Идентификатор : 1
Формат : AVC
Формат/Информация : Advanced Video Codec
Профиль формата : Main@L4.1
Параметр CABAC формата : Да
Параметр ReFrames формата : 4 кадра
Идентификатор кодека : avc1
Идентификатор кодека/Информация : Advanced Video Coding
Продолжительность : 24 м.
Битрейт : 2009 Кбит/сек
Максимальный битрейт : 15,5 Мбит/сек
Ширина : 1280 пикселей
Высота : 720 пикселей
Соотношение сторон : 16:9
Режим частоты кадров : Постоянный
Частота кадров : 23,976 кадра/сек
Цветовое пространство : YUV
Субдискретизация насыщенности : 4:2:0
Битовая глубина : 8 бит
Тип развёртки : Прогрессивная
Бит/(Пиксели*Кадры) : 0.091
Размер потока : 345 Мбайт (84%)
Библиотека кодирования : x264 core 155 r2901 7d0ff22
Настройки программы : cabac=1 / ref=3 / deblock=1:0:0 / analyse=0x1:0x111 / me=hex / subme=7 / psy=1 / psy_rd=1.00:0.00 / mixed_ref=1 / me_range=16 / chroma_me=1 / trellis=1 / 8x8dct=0 / cqm=0 / deadzone=21,11 / fast_pskip=1 / chroma_qp_offset=-2 / threads=18 / lookahead_threads=3 / sliced_threads=0 / nr=0 / decimate=1 / interlaced=0 / bluray_compat=0 / constrained_intra=0 / bframes=3 / b_pyramid=2 / b_adapt=1 / b_bias=0 / direct=1 / weightb=1 / open_gop=0 / weightp=2 / keyint=240 / keyint_min=1 / scenecut=40 / intra_refresh=0 / rc_lookahead=40 / rc=crf / mbtree=1 / crf=20.0 / qcomp=0.60 / qpmin=0 / qpmax=69 / qpstep=4 / ip_ratio=1.40 / aq=1:1.50
Дата кодирования : UTC 2018-07-26 15:12:28
Дата пометки : UTC 2018-07-31 23:20:21
Цветовой диапазон : Limited
Основные цвета : BT.709
Характеристики трансфера : BT.709
Коэффициенты матрицы : BT.709

Аудио #1
Идентификатор : 2
Формат : AAC
Формат/Информация : Advanced Audio Codec
Профиль формата : LC
Идентификатор кодека : 40
Продолжительность : 23 м.
Вид битрейта : Переменный
Битрейт : 192 Кбит/сек
Максимальный битрейт : 197 Кбит/сек
Каналы : 2 канала
Расположение каналов : Front: L R
Частота : 48,0 КГц
Метод сжатия : С потерями
Размер потока : 32,5 Мбайт (8%)
Заголовок : JAM, Trina_D, Jade
Язык : Russian
Дата кодирования : UTC 2018-07-31 23:20:19
Дата пометки : UTC 2018-07-31 23:20:21

Аудио #2
Идентификатор : 3
Формат : AAC
Формат/Информация : Advanced Audio Codec
Профиль формата : LC
Идентификатор кодека : 40
Продолжительность : 24 м.
Вид битрейта : Переменный
Битрейт : 188 Кбит/сек
Максимальный битрейт : 248 Кбит/сек
Каналы : 2 канала
Расположение каналов : Front: L R
Частота : 48,0 КГц
Метод сжатия : С потерями
Размер потока : 32,3 Мбайт (8%)
Язык : Japanese
Дата кодирования : UTC 2018-07-31 23:20:20
Дата пометки : UTC 2018-07-31 23:20:21

Общее
Полное имя : F:Kinozal[AniDub]_Tenrou_-_Sirius_the_Jaeger_[720p]_[JAM, Trina_D, Jade]Tenrou_Sirius_the_Jaeger_[04]_(JAM, Trina_D, Jade).ass
Размер файла : 41,3 Кбайт

Общее
Полное имя : F:Kinozal[AniDub]_Tenrou_-_Sirius_the_Jaeger_[720p]_[JAM, Trina_D, Jade]Tenrou_Sirius_the_Jaeger_[04]_(JAM, Trina_D, Jade).mp4
Формат : MPEG-4
Профиль формата : Base Media
Идентификатор кодека : isom
Размер файла : 364 Мбайт
Продолжительность : 24 м.
Режим общего битрейта : Переменный
Общий поток : 2119 Кбит/сек
Дата кодирования : UTC 2018-08-08 12:35:40
Дата пометки : UTC 2018-08-08 12:35:40
Программа кодирования : Yamb 2.1.0.0 [Yamb » Yet Another MP4Box UI]

Видео
Идентификатор : 1
Формат : AVC
Формат/Информация : Advanced Video Codec
Профиль формата : Main@L4.1
Параметр CABAC формата : Да
Параметр ReFrames формата : 4 кадра
Идентификатор кодека : avc1
Идентификатор кодека/Информация : Advanced Video Coding
Продолжительность : 24 м.
Битрейт : 1721 Кбит/сек
Максимальный битрейт : 23,6 Мбит/сек
Ширина : 1280 пикселей
Высота : 720 пикселей
Соотношение сторон : 16:9
Режим частоты кадров : Постоянный
Частота кадров : 23,976 кадра/сек
Цветовое пространство : YUV
Субдискретизация насыщенности : 4:2:0
Битовая глубина : 8 бит
Тип развёртки : Прогрессивная
Бит/(Пиксели*Кадры) : 0.078
Размер потока : 295 Мбайт (81%)
Библиотека кодирования : x264 core 155 r2901 7d0ff22
Настройки программы : cabac=1 / ref=3 / deblock=1:0:0 / analyse=0x1:0x111 / me=hex / subme=7 / psy=1 / psy_rd=1.00:0.00 / mixed_ref=1 / me_range=16 / chroma_me=1 / trellis=1 / 8x8dct=0 / cqm=0 / deadzone=21,11 / fast_pskip=1 / chroma_qp_offset=-2 / threads=18 / lookahead_threads=3 / sliced_threads=0 / nr=0 / decimate=1 / interlaced=0 / bluray_compat=0 / constrained_intra=0 / bframes=3 / b_pyramid=2 / b_adapt=1 / b_bias=0 / direct=1 / weightb=1 / open_gop=0 / weightp=2 / keyint=240 / keyint_min=1 / scenecut=40 / intra_refresh=0 / rc_lookahead=40 / rc=crf / mbtree=1 / crf=20.0 / qcomp=0.60 / qpmin=0 / qpmax=69 / qpstep=4 / ip_ratio=1.40 / aq=1:1.50
Дата кодирования : UTC 2018-08-02 15:41:18
Дата пометки : UTC 2018-08-08 12:35:43
Цветовой диапазон : Limited
Основные цвета : BT.709
Характеристики трансфера : BT.709
Коэффициенты матрицы : BT.709

Аудио #1
Идентификатор : 2
Формат : AAC
Формат/Информация : Advanced Audio Codec
Профиль формата : LC
Идентификатор кодека : 40
Продолжительность : 23 м.
Вид битрейта : Переменный
Битрейт : 192 Кбит/сек
Максимальный битрейт : 198 Кбит/сек
Каналы : 2 канала
Расположение каналов : Front: L R
Частота : 48,0 КГц
Метод сжатия : С потерями
Размер потока : 32,5 Мбайт (9%)
Заголовок : JAM, Trina_D, Jade
Язык : Russian
Дата кодирования : UTC 2018-08-08 12:35:42
Дата пометки : UTC 2018-08-08 12:35:43

Аудио #2
Идентификатор : 3
Формат : AAC
Формат/Информация : Advanced Audio Codec
Профиль формата : LC
Идентификатор кодека : 40
Продолжительность : 24 м.
Вид битрейта : Переменный
Битрейт : 202 Кбит/сек
Максимальный битрейт : 282 Кбит/сек
Каналы : 2 канала
Расположение каналов : Front: L R
Частота : 48,0 КГц
Метод сжатия : С потерями
Размер потока : 34,7 Мбайт (10%)
Язык : Japanese
Дата кодирования : UTC 2018-08-08 12:35:42
Дата пометки : UTC 2018-08-08 12:35:43

Общее
Полное имя : F:Kinozal[AniDub]_Tenrou_-_Sirius_the_Jaeger_[720p]_[JAM, Trina_D, Jade]Tenrou_Sirius_the_Jaeger_[05]_(JAM, Trina_D, Jade).ass
Размер файла : 38,3 Кбайт

Общее
Полное имя : F:Kinozal[AniDub]_Tenrou_-_Sirius_the_Jaeger_[720p]_[JAM, Trina_D, Jade]Tenrou_Sirius_the_Jaeger_[05]_(JAM, Trina_D, Jade).mp4
Формат : MPEG-4
Профиль формата : Base Media
Идентификатор кодека : isom
Размер файла : 448 Мбайт
Продолжительность : 24 м.
Режим общего битрейта : Переменный
Общий поток : 2612 Кбит/сек
Дата кодирования : UTC 2018-08-16 18:41:06
Дата пометки : UTC 2018-08-16 18:41:06
Программа кодирования : Yamb 2.1.0.0 [Yamb » Yet Another MP4Box UI]

Видео
Идентификатор : 1
Формат : AVC
Формат/Информация : Advanced Video Codec
Профиль формата : Main@L4.1
Параметр CABAC формата : Да
Параметр ReFrames формата : 4 кадра
Идентификатор кодека : avc1
Идентификатор кодека/Информация : Advanced Video Coding
Продолжительность : 24 м.
Битрейт : 2209 Кбит/сек
Максимальный битрейт : 17,4 Мбит/сек
Ширина : 1280 пикселей
Высота : 720 пикселей
Соотношение сторон : 16:9
Режим частоты кадров : Постоянный
Частота кадров : 23,976 кадра/сек
Цветовое пространство : YUV
Субдискретизация насыщенности : 4:2:0
Битовая глубина : 8 бит
Тип развёртки : Прогрессивная
Бит/(Пиксели*Кадры) : 0.100
Размер потока : 379 Мбайт (85%)
Библиотека кодирования : x264 core 155 r2901 7d0ff22
Настройки программы : cabac=1 / ref=3 / deblock=1:0:0 / analyse=0x1:0x111 / me=hex / subme=7 / psy=1 / psy_rd=1.00:0.00 / mixed_ref=1 / me_range=16 / chroma_me=1 / trellis=1 / 8x8dct=0 / cqm=0 / deadzone=21,11 / fast_pskip=1 / chroma_qp_offset=-2 / threads=18 / lookahead_threads=3 / sliced_threads=0 / nr=0 / decimate=1 / interlaced=0 / bluray_compat=0 / constrained_intra=0 / bframes=3 / b_pyramid=2 / b_adapt=1 / b_bias=0 / direct=1 / weightb=1 / open_gop=0 / weightp=2 / keyint=240 / keyint_min=1 / scenecut=40 / intra_refresh=0 / rc_lookahead=40 / rc=crf / mbtree=1 / crf=20.0 / qcomp=0.60 / qpmin=0 / qpmax=69 / qpstep=4 / ip_ratio=1.40 / aq=1:1.50
Дата кодирования : UTC 2018-08-09 14:34:07
Дата пометки : UTC 2018-08-16 18:41:13
Цветовой диапазон : Limited
Основные цвета : BT.709
Характеристики трансфера : BT.709
Коэффициенты матрицы : BT.709

Аудио #1
Идентификатор : 2
Формат : AAC
Формат/Информация : Advanced Audio Codec
Профиль формата : LC
Идентификатор кодека : 40
Продолжительность : 24 м.
Вид битрейта : Переменный
Битрейт : 192 Кбит/сек
Максимальный битрейт : 196 Кбит/сек
Каналы : 2 канала
Расположение каналов : Front: L R
Частота : 48,0 КГц
Метод сжатия : С потерями
Размер потока : 32,5 Мбайт (7%)
Заголовок : JAM, Trina_D, Jade
Язык : Russian
Дата кодирования : UTC 2018-08-16 18:41:11
Дата пометки : UTC 2018-08-16 18:41:13

Аудио #2
Идентификатор : 3
Формат : AAC
Формат/Информация : Advanced Audio Codec
Профиль формата : LC
Идентификатор кодека : 40
Продолжительность : 24 м.
Вид битрейта : Переменный
Битрейт : 209 Кбит/сек
Максимальный битрейт : 249 Кбит/сек
Каналы : 2 канала
Расположение каналов : Front: L R
Частота : 48,0 КГц
Метод сжатия : С потерями
Размер потока : 35,8 Мбайт (8%)
Язык : Japanese
Дата кодирования : UTC 2018-08-16 18:41:12
Дата пометки : UTC 2018-08-16 18:41:13

Общее
Полное имя : F:Kinozal[AniDub]_Tenrou_-_Sirius_the_Jaeger_[720p]_[JAM, Trina_D, Jade]Tenrou_Sirius_the_Jaeger_[06]_(JAM, Trina_D, Jade).ass
Размер файла : 38,9 Кбайт

Общее
Полное имя : F:Kinozal[AniDub]_Tenrou_-_Sirius_the_Jaeger_[720p]_[JAM, Trina_D, Jade]Tenrou_Sirius_the_Jaeger_[06]_(JAM, Trina_D, Jade).mp4
Формат : MPEG-4
Профиль формата : Base Media
Идентификатор кодека : isom
Размер файла : 362 Мбайт
Продолжительность : 24 м.
Режим общего битрейта : Переменный
Общий поток : 2108 Кбит/сек
Дата кодирования : UTC 2018-08-27 19:25:04
Дата пометки : UTC 2018-08-27 19:25:04
Программа кодирования : Yamb 2.1.0.0 [Yamb » Yet Another MP4Box UI]

Видео
Идентификатор : 1
Формат : AVC
Формат/Информация : Advanced Video Codec
Профиль формата : Main@L4.1
Параметр CABAC формата : Да
Параметр ReFrames формата : 4 кадра
Идентификатор кодека : avc1
Идентификатор кодека/Информация : Advanced Video Coding
Продолжительность : 24 м.
Битрейт : 1720 Кбит/сек
Максимальный битрейт : 17,0 Мбит/сек
Ширина : 1280 пикселей
Высота : 720 пикселей
Соотношение сторон : 16:9
Режим частоты кадров : Постоянный
Частота кадров : 23,976 кадра/сек
Цветовое пространство : YUV
Субдискретизация насыщенности : 4:2:0
Битовая глубина : 8 бит
Тип развёртки : Прогрессивная
Бит/(Пиксели*Кадры) : 0.078
Размер потока : 295 Мбайт (82%)
Библиотека кодирования : x264 core 155 r2901 7d0ff22
Настройки программы : cabac=1 / ref=3 / deblock=1:0:0 / analyse=0x1:0x111 / me=hex / subme=7 / psy=1 / psy_rd=1.00:0.00 / mixed_ref=1 / me_range=16 / chroma_me=1 / trellis=1 / 8x8dct=0 / cqm=0 / deadzone=21,11 / fast_pskip=1 / chroma_qp_offset=-2 / threads=18 / lookahead_threads=3 / sliced_threads=0 / nr=0 / decimate=1 / interlaced=0 / bluray_compat=0 / constrained_intra=0 / bframes=3 / b_pyramid=2 / b_adapt=1 / b_bias=0 / direct=1 / weightb=1 / open_gop=0 / weightp=2 / keyint=240 / keyint_min=1 / scenecut=40 / intra_refresh=0 / rc_lookahead=40 / rc=crf / mbtree=1 / crf=20.0 / qcomp=0.60 / qpmin=0 / qpmax=69 / qpstep=4 / ip_ratio=1.40 / aq=1:1.50
Дата кодирования : UTC 2018-08-16 14:33:30
Дата пометки : UTC 2018-08-27 19:25:07
Цветовой диапазон : Limited
Основные цвета : BT.709
Характеристики трансфера : BT.709
Коэффициенты матрицы : BT.709

Аудио #1
Идентификатор : 2
Формат : AAC
Формат/Информация : Advanced Audio Codec
Профиль формата : LC
Идентификатор кодека : 40
Продолжительность : 23 м.
Вид битрейта : Переменный
Битрейт : 192 Кбит/сек
Максимальный битрейт : 194 Кбит/сек
Каналы : 2 канала
Расположение каналов : Front: L R
Частота : 48,0 КГц
Метод сжатия : С потерями
Размер потока : 32,5 Мбайт (9%)
Заголовок : JAM, Trina_D, Jade
Язык : Russian
Дата кодирования : UTC 2018-08-27 19:25:05
Дата пометки : UTC 2018-08-27 19:25:07

Аудио #2
Идентификатор : 3
Формат : AAC
Формат/Информация : Advanced Audio Codec
Профиль формата : LC
Идентификатор кодека : 40
Продолжительность : 24 м.
Вид битрейта : Переменный
Битрейт : 192 Кбит/сек
Максимальный битрейт : 244 Кбит/сек
Каналы : 2 канала
Расположение каналов : Front: L R
Частота : 48,0 КГц
Метод сжатия : С потерями
Размер потока : 32,9 Мбайт (9%)
Язык : Japanese
Дата кодирования : UTC 2018-08-27 19:25:06
Дата пометки : UTC 2018-08-27 19:25:07

Общее
Полное имя : F:Kinozal[AniDub]_Tenrou_-_Sirius_the_Jaeger_[720p]_[JAM, Trina_D, Jade]Tenrou_Sirius_the_Jaeger_[07]_(JAM, Trina_D, Jade).ass
Размер файла : 40,7 Кбайт

Общее
Полное имя : F:Kinozal[AniDub]_Tenrou_-_Sirius_the_Jaeger_[720p]_[JAM, Trina_D, Jade]Tenrou_Sirius_the_Jaeger_[07]_(JAM, Trina_D, Jade).mp4
Формат : MPEG-4
Профиль формата : Base Media
Идентификатор кодека : isom
Размер файла : 347 Мбайт
Продолжительность : 24 м.
Режим общего битрейта : Переменный
Общий поток : 2019 Кбит/сек
Дата кодирования : UTC 2018-09-01 11:28:00
Дата пометки : UTC 2018-09-01 11:28:00
Программа кодирования : Yamb 2.1.0.0 [Yamb » Yet Another MP4Box UI]

Видео
Идентификатор : 1
Формат : AVC
Формат/Информация : Advanced Video Codec
Профиль формата : Main@L4.1
Параметр CABAC формата : Да
Параметр ReFrames формата : 4 кадра
Идентификатор кодека : avc1
Идентификатор кодека/Информация : Advanced Video Coding
Продолжительность : 24 м.
Битрейт : 1634 Кбит/сек
Максимальный битрейт : 7895 Кбит/сек
Ширина : 1280 пикселей
Высота : 720 пикселей
Соотношение сторон : 16:9
Режим частоты кадров : Постоянный
Частота кадров : 23,976 кадра/сек
Цветовое пространство : YUV
Субдискретизация насыщенности : 4:2:0
Битовая глубина : 8 бит
Тип развёртки : Прогрессивная
Бит/(Пиксели*Кадры) : 0.074
Размер потока : 281 Мбайт (81%)
Библиотека кодирования : x264 core 155 r2901 7d0ff22
Настройки программы : cabac=1 / ref=3 / deblock=1:0:0 / analyse=0x1:0x111 / me=hex / subme=7 / psy=1 / psy_rd=1.00:0.00 / mixed_ref=1 / me_range=16 / chroma_me=1 / trellis=1 / 8x8dct=0 / cqm=0 / deadzone=21,11 / fast_pskip=1 / chroma_qp_offset=-2 / threads=18 / lookahead_threads=3 / sliced_threads=0 / nr=0 / decimate=1 / interlaced=0 / bluray_compat=0 / constrained_intra=0 / bframes=3 / b_pyramid=2 / b_adapt=1 / b_bias=0 / direct=1 / weightb=1 / open_gop=0 / weightp=2 / keyint=240 / keyint_min=1 / scenecut=40 / intra_refresh=0 / rc_lookahead=40 / rc=crf / mbtree=1 / crf=20.0 / qcomp=0.60 / qpmin=0 / qpmax=69 / qpstep=4 / ip_ratio=1.40 / aq=1:1.50
Дата кодирования : UTC 2018-08-23 14:33:32
Дата пометки : UTC 2018-09-01 11:28:06
Цветовой диапазон : Limited
Основные цвета : BT.709
Характеристики трансфера : BT.709
Коэффициенты матрицы : BT.709

Аудио #1
Идентификатор : 2
Формат : AAC
Формат/Информация : Advanced Audio Codec
Профиль формата : LC
Идентификатор кодека : 40
Продолжительность : 23 м.
Вид битрейта : Переменный
Битрейт : 192 Кбит/сек
Максимальный битрейт : 196 Кбит/сек
Каналы : 2 канала
Расположение каналов : Front: L R
Частота : 48,0 КГц
Метод сжатия : С потерями
Размер потока : 32,5 Мбайт (9%)
Заголовок : JAM, Trina_D, Jade
Язык : Russian
Дата кодирования : UTC 2018-09-01 11:28:04
Дата пометки : UTC 2018-09-01 11:28:06

Аудио #2
Идентификатор : 3
Формат : AAC
Формат/Информация : Advanced Audio Codec
Профиль формата : LC
Идентификатор кодека : 40
Продолжительность : 24 м.
Вид битрейта : Переменный
Битрейт : 192 Кбит/сек
Максимальный битрейт : 248 Кбит/сек
Каналы : 2 канала
Расположение каналов : Front: L R
Частота : 48,0 КГц
Метод сжатия : С потерями
Размер потока : 32,7 Мбайт (9%)
Язык : Japanese
Дата кодирования : UTC 2018-09-01 11:28:04
Дата пометки : UTC 2018-09-01 11:28:06

Общее
Полное имя : F:Kinozal[AniDub]_Tenrou_-_Sirius_the_Jaeger_[720p]_[JAM, Trina_D, Jade]Tenrou_Sirius_the_Jaeger_[08]_(JAM, Trina_D, Jade).ass
Размер файла : 35,0 Кбайт

Общее
Полное имя : F:Kinozal[AniDub]_Tenrou_-_Sirius_the_Jaeger_[720p]_[JAM, Trina_D, Jade]Tenrou_Sirius_the_Jaeger_[08]_(JAM, Trina_D, Jade).mp4
Формат : MPEG-4
Профиль формата : Base Media
Идентификатор кодека : isom
Размер файла : 393 Мбайт
Продолжительность : 24 м.
Режим общего битрейта : Переменный
Общий поток : 2289 Кбит/сек
Дата кодирования : UTC 2018-09-06 16:11:12
Дата пометки : UTC 2018-09-06 16:11:12
Программа кодирования : Yamb 2.1.0.0 [Yamb » Yet Another MP4Box UI]

Видео
Идентификатор : 1
Формат : AVC
Формат/Информация : Advanced Video Codec
Профиль формата : Main@L4.1
Параметр CABAC формата : Да
Параметр ReFrames формата : 4 кадра
Идентификатор кодека : avc1
Идентификатор кодека/Информация : Advanced Video Coding
Продолжительность : 24 м.
Битрейт : 1898 Кбит/сек
Максимальный битрейт : 15,5 Мбит/сек
Ширина : 1280 пикселей
Высота : 720 пикселей
Соотношение сторон : 16:9
Режим частоты кадров : Постоянный
Частота кадров : 23,976 кадра/сек
Цветовое пространство : YUV
Субдискретизация насыщенности : 4:2:0
Битовая глубина : 8 бит
Тип развёртки : Прогрессивная
Бит/(Пиксели*Кадры) : 0.086
Размер потока : 326 Мбайт (83%)
Библиотека кодирования : x264 core 157 r2932 303c484
Настройки программы : cabac=1 / ref=3 / deblock=1:0:0 / analyse=0x1:0x111 / me=hex / subme=7 / psy=1 / psy_rd=1.00:0.00 / mixed_ref=1 / me_range=16 / chroma_me=1 / trellis=1 / 8x8dct=0 / cqm=0 / deadzone=21,11 / fast_pskip=1 / chroma_qp_offset=-2 / threads=18 / lookahead_threads=3 / sliced_threads=0 / nr=0 / decimate=1 / interlaced=0 / bluray_compat=0 / constrained_intra=0 / bframes=3 / b_pyramid=2 / b_adapt=1 / b_bias=0 / direct=1 / weightb=1 / open_gop=0 / weightp=2 / keyint=240 / keyint_min=1 / scenecut=40 / intra_refresh=0 / rc_lookahead=40 / rc=crf / mbtree=1 / crf=20.0 / qcomp=0.60 / qpmin=0 / qpmax=69 / qpstep=4 / ip_ratio=1.40 / aq=1:1.50
Дата кодирования : UTC 2018-08-30 14:35:30
Дата пометки : UTC 2018-09-06 16:11:18
Цветовой диапазон : Limited
Основные цвета : BT.709
Характеристики трансфера : BT.709
Коэффициенты матрицы : BT.709

Аудио #1
Идентификатор : 2
Формат : AAC
Формат/Информация : Advanced Audio Codec
Профиль формата : LC
Идентификатор кодека : 40
Продолжительность : 23 м.
Вид битрейта : Переменный
Битрейт : 192 Кбит/сек
Максимальный битрейт : 195 Кбит/сек
Каналы : 2 канала
Расположение каналов : Front: L R
Частота : 48,0 КГц
Метод сжатия : С потерями
Размер потока : 32,5 Мбайт (8%)
Заголовок : JAM, Trina_D, Jade
Язык : Russian
Дата кодирования : UTC 2018-09-06 16:11:16
Дата пометки : UTC 2018-09-06 16:11:18

Аудио #2
Идентификатор : 3
Формат : AAC
Формат/Информация : Advanced Audio Codec
Профиль формата : LC
Идентификатор кодека : 40
Продолжительность : 24 м.
Вид битрейта : Переменный
Битрейт : 192 Кбит/сек
Максимальный битрейт : 250 Кбит/сек
Каналы : 2 канала
Расположение каналов : Front: L R
Частота : 48,0 КГц
Метод сжатия : С потерями
Размер потока : 33,5 Мбайт (9%)
Язык : Japanese
Дата кодирования : UTC 2018-09-06 16:11:17
Дата пометки : UTC 2018-09-06 16:11:18

Общее
Полное имя : F:Kinozal[AniDub]_Tenrou_-_Sirius_the_Jaeger_[720p]_[JAM, Trina_D, Jade]Tenrou_Sirius_the_Jaeger_[09]_(JAM, Trina_D, Jade).ass
Размер файла : 40,0 Кбайт

Общее
Полное имя : F:Kinozal[AniDub]_Tenrou_-_Sirius_the_Jaeger_[720p]_[JAM, Trina_D, Jade]Tenrou_Sirius_the_Jaeger_[09]_(JAM, Trina_D, Jade).mp4
Формат : MPEG-4
Профиль формата : Base Media
Идентификатор кодека : isom
Размер файла : 355 Мбайт
Продолжительность : 24 м.
Режим общего битрейта : Переменный
Общий поток : 2070 Кбит/сек
Дата кодирования : UTC 2018-09-23 10:30:18
Дата пометки : UTC 2018-09-23 10:30:18
Программа кодирования : Yamb 2.1.0.0 [Yamb » Yet Another MP4Box UI]

Видео
Идентификатор : 1
Формат : AVC
Формат/Информация : Advanced Video Codec
Профиль формата : Main@L4.1
Параметр CABAC формата : Да
Параметр ReFrames формата : 4 кадра
Идентификатор кодека : avc1
Идентификатор кодека/Информация : Advanced Video Coding
Продолжительность : 24 м.
Битрейт : 1689 Кбит/сек
Максимальный битрейт : 17,5 Мбит/сек
Ширина : 1280 пикселей
Высота : 720 пикселей
Соотношение сторон : 16:9
Режим частоты кадров : Постоянный
Частота кадров : 23,976 кадра/сек
Цветовое пространство : YUV
Субдискретизация насыщенности : 4:2:0
Битовая глубина : 8 бит
Тип развёртки : Прогрессивная
Бит/(Пиксели*Кадры) : 0.076
Размер потока : 290 Мбайт (82%)
Библиотека кодирования : x264 core 157 r2932 303c484
Настройки программы : cabac=1 / ref=3 / deblock=1:0:0 / analyse=0x1:0x111 / me=hex / subme=7 / psy=1 / psy_rd=1.00:0.00 / mixed_ref=1 / me_range=16 / chroma_me=1 / trellis=1 / 8x8dct=0 / cqm=0 / deadzone=21,11 / fast_pskip=1 / chroma_qp_offset=-2 / threads=18 / lookahead_threads=3 / sliced_threads=0 / nr=0 / decimate=1 / interlaced=0 / bluray_compat=0 / constrained_intra=0 / bframes=3 / b_pyramid=2 / b_adapt=1 / b_bias=0 / direct=1 / weightb=1 / open_gop=0 / weightp=2 / keyint=240 / keyint_min=1 / scenecut=40 / intra_refresh=0 / rc_lookahead=40 / rc=crf / mbtree=1 / crf=20.0 / qcomp=0.60 / qpmin=0 / qpmax=69 / qpstep=4 / ip_ratio=1.40 / aq=1:1.50
Дата кодирования : UTC 2018-09-06 14:43:00
Дата пометки : UTC 2018-09-23 10:30:24
Цветовой диапазон : Limited
Основные цвета : BT.709
Характеристики трансфера : BT.709
Коэффициенты матрицы : BT.709

Аудио #1
Идентификатор : 2
Формат : AAC
Формат/Информация : Advanced Audio Codec
Профиль формата : LC
Идентификатор кодека : 40
Продолжительность : 23 м.
Вид битрейта : Переменный
Битрейт : 192 Кбит/сек
Максимальный битрейт : 195 Кбит/сек
Каналы : 2 канала
Расположение каналов : Front: L R
Частота : 48,0 КГц
Метод сжатия : С потерями
Размер потока : 32,5 Мбайт (9%)
Заголовок : JAM, Trina_D, Jade
Язык : Russian
Дата кодирования : UTC 2018-09-23 10:30:22
Дата пометки : UTC 2018-09-23 10:30:24

Аудио #2
Идентификатор : 3
Формат : AAC
Формат/Информация : Advanced Audio Codec
Профиль формата : LC
Идентификатор кодека : 40
Продолжительность : 24 м.
Вид битрейта : Переменный
Битрейт : 186 Кбит/сек
Максимальный битрейт : 250 Кбит/сек
Каналы : 2 канала
Расположение каналов : Front: L R
Частота : 48,0 КГц
Метод сжатия : С потерями
Размер потока : 31,9 Мбайт (9%)
Язык : Japanese
Дата кодирования : UTC 2018-09-23 10:30:23
Дата пометки : UTC 2018-09-23 10:30:24

Общее
Полное имя : F:Kinozal[AniDub]_Tenrou_-_Sirius_the_Jaeger_[720p]_[JAM, Trina_D, Jade]Tenrou_Sirius_the_Jaeger_[10]_(JAM, Trina_D, Jade).ass
Размер файла : 40,7 Кбайт

Общее
Полное имя : F:Kinozal[AniDub]_Tenrou_-_Sirius_the_Jaeger_[720p]_[JAM, Trina_D, Jade]Tenrou_Sirius_the_Jaeger_[10]_(JAM, Trina_D, Jade).mp4
Формат : MPEG-4
Профиль формата : Base Media
Идентификатор кодека : isom
Размер файла : 445 Мбайт
Продолжительность : 24 м.
Режим общего битрейта : Переменный
Общий поток : 2590 Кбит/сек
Дата кодирования : UTC 2018-09-23 10:31:02
Дата пометки : UTC 2018-09-23 10:31:02
Программа кодирования : Yamb 2.1.0.0 [Yamb » Yet Another MP4Box UI]

Видео
Идентификатор : 1
Формат : AVC
Формат/Информация : Advanced Video Codec
Профиль формата : Main@L4.1
Параметр CABAC формата : Да
Параметр ReFrames формата : 4 кадра
Идентификатор кодека : avc1
Идентификатор кодека/Информация : Advanced Video Coding
Продолжительность : 24 м.
Битрейт : 2200 Кбит/сек
Максимальный битрейт : 15,7 Мбит/сек
Ширина : 1280 пикселей
Высота : 720 пикселей
Соотношение сторон : 16:9
Режим частоты кадров : Постоянный
Частота кадров : 23,976 кадра/сек
Цветовое пространство : YUV
Субдискретизация насыщенности : 4:2:0
Битовая глубина : 8 бит
Тип развёртки : Прогрессивная
Бит/(Пиксели*Кадры) : 0.100
Размер потока : 378 Мбайт (85%)
Библиотека кодирования : x264 core 157 r2932 303c484
Настройки программы : cabac=1 / ref=3 / deblock=1:0:0 / analyse=0x1:0x111 / me=hex / subme=7 / psy=1 / psy_rd=1.00:0.00 / mixed_ref=1 / me_range=16 / chroma_me=1 / trellis=1 / 8x8dct=0 / cqm=0 / deadzone=21,11 / fast_pskip=1 / chroma_qp_offset=-2 / threads=18 / lookahead_threads=3 / sliced_threads=0 / nr=0 / decimate=1 / interlaced=0 / bluray_compat=0 / constrained_intra=0 / bframes=3 / b_pyramid=2 / b_adapt=1 / b_bias=0 / direct=1 / weightb=1 / open_gop=0 / weightp=2 / keyint=240 / keyint_min=1 / scenecut=40 / intra_refresh=0 / rc_lookahead=40 / rc=crf / mbtree=1 / crf=20.0 / qcomp=0.60 / qpmin=0 / qpmax=69 / qpstep=4 / ip_ratio=1.40 / aq=1:1.50
Дата кодирования : UTC 2018-09-13 14:34:50
Дата пометки : UTC 2018-09-23 10:31:10
Цветовой диапазон : Limited
Основные цвета : BT.709
Характеристики трансфера : BT.709
Коэффициенты матрицы : BT.709

Аудио #1
Идентификатор : 2
Формат : AAC
Формат/Информация : Advanced Audio Codec
Профиль формата : LC
Идентификатор кодека : 40
Продолжительность : 24 м.
Вид битрейта : Переменный
Битрейт : 192 Кбит/сек
Максимальный битрейт : 195 Кбит/сек
Каналы : 2 канала
Расположение каналов : Front: L R
Частота : 48,0 КГц
Метод сжатия : С потерями
Размер потока : 32,5 Мбайт (7%)
Заголовок : JAM, Trina_D, Jade
Язык : Russian
Дата кодирования : UTC 2018-09-23 10:31:07
Дата пометки : UTC 2018-09-23 10:31:10

Аудио #2
Идентификатор : 3
Формат : AAC
Формат/Информация : Advanced Audio Codec
Профиль формата : LC
Идентификатор кодека : 40
Продолжительность : 24 м.
Вид битрейта : Переменный
Битрейт : 192 Кбит/сек
Максимальный битрейт : 252 Кбит/сек
Каналы : 2 канала
Расположение каналов : Front: L R
Частота : 48,0 КГц
Метод сжатия : С потерями
Размер потока : 33,5 Мбайт (8%)
Язык : Japanese
Дата кодирования : UTC 2018-09-23 10:31:08
Дата пометки : UTC 2018-09-23 10:31:10

Общее
Полное имя : F:Kinozal[AniDub]_Tenrou_-_Sirius_the_Jaeger_[720p]_[JAM, Trina_D, Jade]Tenrou_Sirius_the_Jaeger_[11]_(JAM, Trina_D, Jade).ass
Размер файла : 42,0 Кбайт

Общее
Полное имя : F:Kinozal[AniDub]_Tenrou_-_Sirius_the_Jaeger_[720p]_[JAM, Trina_D, Jade]Tenrou_Sirius_the_Jaeger_[11]_(JAM, Trina_D, Jade).mp4
Формат : MPEG-4
Профиль формата : Base Media
Идентификатор кодека : isom
Размер файла : 379 Мбайт
Продолжительность : 24 м.
Режим общего битрейта : Переменный
Общий поток : 2208 Кбит/сек
Дата кодирования : UTC 2018-10-01 12:28:56
Дата пометки : UTC 2018-10-01 12:28:56
Программа кодирования : Yamb 2.1.0.0 [Yamb » Yet Another MP4Box UI]

Видео
Идентификатор : 1
Формат : AVC
Формат/Информация : Advanced Video Codec
Профиль формата : Main@L4.1
Параметр CABAC формата : Да
Параметр ReFrames формата : 4 кадра
Идентификатор кодека : avc1
Идентификатор кодека/Информация : Advanced Video Coding
Продолжительность : 24 м.
Битрейт : 1811 Кбит/сек
Максимальный битрейт : 17,3 Мбит/сек
Ширина : 1280 пикселей
Высота : 720 пикселей
Соотношение сторон : 16:9
Режим частоты кадров : Постоянный
Частота кадров : 23,976 кадра/сек
Цветовое пространство : YUV
Субдискретизация насыщенности : 4:2:0
Битовая глубина : 8 бит
Тип развёртки : Прогрессивная
Бит/(Пиксели*Кадры) : 0.082
Размер потока : 311 Мбайт (82%)
Библиотека кодирования : x264 core 157 r2932 303c484
Настройки программы : cabac=1 / ref=3 / deblock=1:0:0 / analyse=0x1:0x111 / me=hex / subme=7 / psy=1 / psy_rd=1.00:0.00 / mixed_ref=1 / me_range=16 / chroma_me=1 / trellis=1 / 8x8dct=0 / cqm=0 / deadzone=21,11 / fast_pskip=1 / chroma_qp_offset=-2 / threads=18 / lookahead_threads=3 / sliced_threads=0 / nr=0 / decimate=1 / interlaced=0 / bluray_compat=0 / constrained_intra=0 / bframes=3 / b_pyramid=2 / b_adapt=1 / b_bias=0 / direct=1 / weightb=1 / open_gop=0 / weightp=2 / keyint=240 / keyint_min=1 / scenecut=40 / intra_refresh=0 / rc_lookahead=40 / rc=crf / mbtree=1 / crf=20.0 / qcomp=0.60 / qpmin=0 / qpmax=69 / qpstep=4 / ip_ratio=1.40 / aq=1:1.50
Дата кодирования : UTC 2018-09-20 14:41:45
Дата пометки : UTC 2018-10-01 12:28:59
Цветовой диапазон : Limited
Основные цвета : BT.709
Характеристики трансфера : BT.709
Коэффициенты матрицы : BT.709

Аудио #1
Идентификатор : 2
Формат : AAC
Формат/Информация : Advanced Audio Codec
Профиль формата : LC
Идентификатор кодека : 40
Продолжительность : 24 м.
Вид битрейта : Переменный
Битрейт : 192 Кбит/сек
Максимальный битрейт : 199 Кбит/сек
Каналы : 2 канала
Расположение каналов : Front: L R
Частота : 48,0 КГц
Метод сжатия : С потерями
Размер потока : 32,5 Мбайт (9%)
Заголовок : JAM, Trina_D, Jade
Язык : Russian
Дата кодирования : UTC 2018-10-01 12:28:58
Дата пометки : UTC 2018-10-01 12:28:59

Аудио #2
Идентификатор : 3
Формат : AAC
Формат/Информация : Advanced Audio Codec
Профиль формата : LC
Идентификатор кодека : 40
Продолжительность : 24 м.
Вид битрейта : Переменный
Битрейт : 201 Кбит/сек
Максимальный битрейт : 257 Кбит/сек
Каналы : 2 канала
Расположение каналов : Front: L R
Частота : 48,0 КГц
Метод сжатия : С потерями
Размер потока : 34,5 Мбайт (9%)
Язык : Japanese
Дата кодирования : UTC 2018-10-01 12:28:59
Дата пометки : UTC 2018-10-01 12:28:59

Общее
Полное имя : F:Kinozal[AniDub]_Tenrou_-_Sirius_the_Jaeger_[720p]_[JAM, Trina_D, Jade]Tenrou_Sirius_the_Jaeger_[12]_(JAM, Trina_D, Jade).ass
Размер файла : 40,7 Кбайт

Общее
Полное имя : F:Kinozal[AniDub]_Tenrou_-_Sirius_the_Jaeger_[720p]_[JAM, Trina_D, Jade]Tenrou_Sirius_the_Jaeger_[12]_(JAM, Trina_D, Jade).mp4
Формат : MPEG-4
Профиль формата : Base Media
Идентификатор кодека : isom
Размер файла : 357 Мбайт
Продолжительность : 24 м.
Режим общего битрейта : Переменный
Общий поток : 2079 Кбит/сек
Дата кодирования : UTC 2018-10-04 11:39:32
Дата пометки : UTC 2018-10-04 11:39:32
Программа кодирования : Yamb 2.1.0.0 [Yamb » Yet Another MP4Box UI]

Видео
Идентификатор : 1
Формат : AVC
Формат/Информация : Advanced Video Codec
Профиль формата : Main@L4.1
Параметр CABAC формата : Да
Параметр ReFrames формата : 4 кадра
Идентификатор кодека : avc1
Идентификатор кодека/Информация : Advanced Video Coding
Продолжительность : 24 м.
Битрейт : 1685 Кбит/сек
Максимальный битрейт : 10,2 Мбит/сек
Ширина : 1280 пикселей
Высота : 720 пикселей
Соотношение сторон : 16:9
Режим частоты кадров : Постоянный
Частота кадров : 23,976 кадра/сек
Цветовое пространство : YUV
Субдискретизация насыщенности : 4:2:0
Битовая глубина : 8 бит
Тип развёртки : Прогрессивная
Бит/(Пиксели*Кадры) : 0.076
Размер потока : 289 Мбайт (81%)
Библиотека кодирования : x264 core 157 r2932 303c484
Настройки программы : cabac=1 / ref=3 / deblock=1:0:0 / analyse=0x1:0x111 / me=hex / subme=7 / psy=1 / psy_rd=1.00:0.00 / mixed_ref=1 / me_range=16 / chroma_me=1 / trellis=1 / 8x8dct=0 / cqm=0 / deadzone=21,11 / fast_pskip=1 / chroma_qp_offset=-2 / threads=18 / lookahead_threads=3 / sliced_threads=0 / nr=0 / decimate=1 / interlaced=0 / bluray_compat=0 / constrained_intra=0 / bframes=3 / b_pyramid=2 / b_adapt=1 / b_bias=0 / direct=1 / weightb=1 / open_gop=0 / weightp=2 / keyint=240 / keyint_min=1 / scenecut=40 / intra_refresh=0 / rc_lookahead=40 / rc=crf / mbtree=1 / crf=20.0 / qcomp=0.60 / qpmin=0 / qpmax=69 / qpstep=4 / ip_ratio=1.40 / aq=1:1.50
Дата кодирования : UTC 2018-09-27 16:13:42
Дата пометки : UTC 2018-10-04 11:39:38
Цветовой диапазон : Limited
Основные цвета : BT.709
Характеристики трансфера : BT.709
Коэффициенты матрицы : BT.709

Аудио #1
Идентификатор : 2
Формат : AAC
Формат/Информация : Advanced Audio Codec
Профиль формата : LC
Идентификатор кодека : 40
Продолжительность : 23 м.
Вид битрейта : Переменный
Битрейт : 192 Кбит/сек
Максимальный битрейт : 195 Кбит/сек
Каналы : 2 канала
Расположение каналов : Front: L R
Частота : 48,0 КГц
Метод сжатия : С потерями
Размер потока : 32,5 Мбайт (9%)
Заголовок : JAM, Trina_D, Jade
Язык : Russian
Дата кодирования : UTC 2018-10-04 11:39:36
Дата пометки : UTC 2018-10-04 11:39:38

Аудио #2
Идентификатор : 3
Формат : AAC
Формат/Информация : Advanced Audio Codec
Профиль формата : LC
Идентификатор кодека : 40
Продолжительность : 24 м.
Вид битрейта : Переменный
Битрейт : 198 Кбит/сек
Максимальный битрейт : 252 Кбит/сек
Каналы : 2 канала
Расположение каналов : Front: L R
Частота : 48,0 КГц
Метод сжатия : С потерями
Размер потока : 34,0 Мбайт (10%)
Язык : Japanese
Дата кодирования : UTC 2018-10-04 11:39:37
Дата пометки : UTC 2018-10-04 11:39:38
Список серий
01. The Revenant Howls in Darkness
02. Deprived Talent
03. Indelible Memories
04. Beginning of Trickery.
05. The Frankenstein
06. Mockingbird's Song
07. True Confession
08. The Sanctuary of Sirius
09. Father's Shadow
10. Memories of the Abyss
11. Calling in Blood
12. The Ark of Sirius
Скриншоты
 

Вложения

  • 14,6 KB Просмотры: 1
    Личеров 0
    Сидеров 0
    Файлов 24
    Объем 4,5 GB

Привет!

Мы группа людей которые решили помочь другим в решении их проблем, а так же пользователям с поиском самых свежих и качественных инфопродуктов. За 4 с небольшим месяца мы создали этот форум на который заходят ежедневно тысячи человек и посещаемость постоянно растёт. Мы создали панель лицензирования для защиты PHP скриптов от воровства и SEO панель для мониторинга наших сайтов и выбора верной стратегии их развития. Мы надеемся что то что мы создали пригодится Вам и возможно Вы поможете нам развиваться и совершенствоваться вместе с Вами.

Статистика форума

Темы
404.586
Сообщения
461.463
Пользователи
80.281
Новый пользователь
MrProUk

Приложения форума для iOS и Android


У ркн там нет власти ;)
Приватные разговоры
Помощь Пользователи
    Вы не присоединились ни к одной комнате.