За последнюю неделю опубликовано 59 новых материалов.
Инструкция новичку Путеводитель по форуму Прокси для Telegram Показать подсказки , это бомба!

Скачать Неаполитанские мошенники / Il Ladro di Cardellini (2019) WEB-DL 1080p от ELEKTRI4KA | iTunes бесплатно через торрент

  • Поучаствуй (в качестве покупателя) в любых пяти совместных покупках (кроме завершённых и "Моментальных") и получи группу "Новичок" навсегда -> ссылка на раздел
  • Получай до 480 рублей за каждого приглашенного пользователя!
    представляем Вам очередное расширение партнерской программы, подробности описаны тут -> ссылка
  • 90% материалов доступно к скачиванию после простой регистрации!
    Если же ты хочешь скачивать материалы без требования оставлять отзывы то получи группу "Новичок", 10 способов повышения описаны тут -> ссылка
  • К сожалению количество битых ссылок растет и мы уже не можем их оперативно восстанавливать поэтому просим помощи у каждого нашего пользователя.
    С сегодняшнего дня, за каждую восстановленную ссылку мы заплатим Вам.
    Подробнее тут -> ссылка
  • Перенесем твои заслуги с другого ресурса!
    Мы понимаем как сложно прокачивать аккаунты на форумах, вроде раскачал аккаунт, а тут появляется ресурс в 100 раз круче но тоже с системой прокачки и снова качать аккаунт...
    Предлагаем вам перенести Ваши заслуги на другом подобном ресурсе к нам.
    Подробности описаны тут -> ссылка
  • Вы можете получать по 2.5% с каждой покупки и продажи на маркете! Подробности в теме Партнёрская программа
Если Вы не хотите скачивать, Вы всегда можетепосмотретьонлайн, просто нажмите кнопку ниже :

Открыть плеер

Torrent_Bot

Торрент-Бот
Бот форума
4 Окт 2016
102
157
20



Информация о фильме
Название: Неаполитанские мошенники
Оригинальное название: Il Ladro di Cardellini
Год выхода: 2019
Жанр: комедия
Режиссер: Карло Лульо
В ролях: Нандо Паоне, Эрнесто Махье, Лука Де Гильо, Вивиана Канджано, Лино Муселла

О фильме: «Ковбой» Паскуале, Дон Франко и парень по имени Тоторе - экстравагантное трио браконьеров, которые охотятся за певчими птицами. Их будни полны опасности и красоты - например, когда они поставляют голубей на пышные неаполитанские свадьбы. Чтобы подзаработать, они решают совершить «преступление века» и поймать очень редких и дорогих белых щеглов, но еще не знают, к чему их это приведет.



Выпущено: Италия
Студия: Minerva Pictures, Bronx Film, PFA Films
Продолжительность: 01:32:16
Озвучивание: Профессиональный (многоголосый) | iTunes

Файл
Формат: MKV
Качество: WEB-DL 1080p
Видео: x264, 4579 Kb/s, 1920x806 (2.40:1), 24.000 fps, 0.123 bit/pixel
Аудио 1: 48 kHz, AC3 Dolby Digital, 3/2 (L, C, R, l, r) + LFE ch, ~384 kbps | русский
Аудио 2: 48 kHz, AC3 Dolby Digital, 3/2 (L, C, R, l, r) + LFE ch, ~384 kbps | итальянский
Субтитры: Russian (Full)
Дополнительно: Сохранены оригинальные чаптеры.

Релиз группы

MediaInfo:
Complete name : Il.Ladro.di.Cardellini.2019.P.WEB-DL.1080p.ELEKTRI4KA.mkv
Format : Matroska
Format version : Version 4
File size : 3.45 GiB
Duration : 1 h 32 min
Overall bit rate : 5 350 kb/s
Encoded date : UTC 2020-05-24 18:57:02
Writing application : mkvmerge v41.0.0 ('Smarra') 64-bit
Writing library : libebml v1.3.9 + libmatroska v1.5.2
Cover : Yes
Attachments : cover.jpg

Video
ID : 1
Format : AVC
Format/Info : Advanced Video Codec
Format profile : High@L4
Format settings : CABAC / 5 Ref Frames
Format settings, CABAC : Yes
Format settings, Reference frames : 5 frames
Codec ID : V_MPEG4/ISO/AVC
Duration : 1 h 32 min
Bit rate : 4 579 kb/s
Width : 1 920 pixels
Height : 806 pixels
Display aspect ratio : 2.40:1
Frame rate mode : Constant
Frame rate : 24.000 FPS
Color space : YUV
Chroma subsampling : 4:2:0
Bit depth : 8 bits
Scan type : Progressive
Bits/(Pixel*Frame) : 0.123
Stream size : 2.95 GiB (86%)
Title : ELEKTRI4KA-Kapo
Language : English
Default : Yes
Forced : No
Color range : Limited
Color primaries : BT.709
Transfer characteristics : BT.709
Matrix coefficients : BT.709

Audio #1
ID : 2
Format : AC-3
Format/Info : Audio Coding 3
Commercial name : Dolby Digital
Codec ID : A_AC3
Duration : 1 h 32 min
Bit rate mode : Constant
Bit rate : 384 kb/s
Channel(s) : 6 channels
Channel layout : L R C LFE Ls Rs
Sampling rate : 48.0 kHz
Frame rate : 31.250 FPS (1536 SPF)
Compression mode : Lossy
Delay relative to video : -42 ms
Stream size : 253 MiB (7%)
Title : iTunes - ELEKTRI4KA-Kapo
Language : Russian
Service kind : Complete Main
Default : Yes
Forced : No

Audio #2
ID : 3
Format : AC-3
Format/Info : Audio Coding 3
Commercial name : Dolby Digital
Codec ID : A_AC3
Duration : 1 h 32 min
Bit rate mode : Constant
Bit rate : 384 kb/s
Channel(s) : 6 channels
Channel layout : L R C LFE Ls Rs
Sampling rate : 48.0 kHz
Frame rate : 31.250 FPS (1536 SPF)
Compression mode : Lossy
Delay relative to video : -42 ms
Stream size : 253 MiB (7%)
Language : Italian
Service kind : Complete Main
Default : No
Forced : No

Text
ID : 4
Format : UTF-8
Codec ID : S_TEXT/UTF8
Codec ID/Info : UTF-8 Plain Text
Duration : 1 h 26 min
Bit rate : 87 b/s
Count of elements : 1014
Stream size : 55.1 KiB (0%)
Title : Full
Language : Russian
Default : Yes
Forced : No

Menu
00:00:00.000 : en:Глава 1
00:08:55.250 : en:Глава 2
00:16:34.665 : en:Глава 3
00:24:16.915 : en:Глава 4
00:32:44.790 : en:Глава 5
00:39:59.205 : en:Глава 6
00:48:52.455 : en:Глава 7
00:58:46.205 : en:Глава 8
01:06:04.038 : en:Глава 9
01:11:36.788 : en:Глава 10
01:18:14.454 : en:Глава 11
01:24:34.454 : en:Глава 12
Скриншоты

 

Вложения

  • 18,1 KB Просмотры: 0
    Личеров 0
    Сидеров 0
    Файлов 1
    Объем 3,4 GB

Привет!

Мы группа людей которые решили помочь другим в решении их проблем, а так же пользователям с поиском самых свежих и качественных инфопродуктов. За 4 с небольшим месяца мы создали этот форум на который заходят ежедневно тысячи человек и посещаемость постоянно растёт. Мы создали панель лицензирования для защиты PHP скриптов от воровства и SEO панель для мониторинга наших сайтов и выбора верной стратегии их развития. Мы надеемся что то что мы создали пригодится Вам и возможно Вы поможете нам развиваться и совершенствоваться вместе с Вами.

Статистика форума

Темы
405.486
Сообщения
462.608
Пользователи
80.702
Новый пользователь
Dobryden

Приложения форума для iOS и Android


У ркн там нет власти ;)
Приватные разговоры
Помощь Пользователи
    Вы не присоединились ни к одной комнате.