За последнюю неделю опубликовано 72 новых материалов.
Инструкция новичку Путеводитель по форуму Прокси для Telegram Показать подсказки , это бомба!

Скачать Не уступить Штейнам / Keeping Up with the Steins (2006) WEB-DL 1080p от MediaBit | P бесплатно через торрент

  • Поучаствуй (в качестве покупателя) в любых пяти совместных покупках (кроме завершённых и "Моментальных") и получи группу "Новичок" навсегда -> ссылка на раздел
  • Получай до 480 рублей за каждого приглашенного пользователя!
    представляем Вам очередное расширение партнерской программы, подробности описаны тут -> ссылка
  • 90% материалов доступно к скачиванию после простой регистрации!
    Если же ты хочешь скачивать материалы без требования оставлять отзывы то получи группу "Новичок", 10 способов повышения описаны тут -> ссылка
  • К сожалению количество битых ссылок растет и мы уже не можем их оперативно восстанавливать поэтому просим помощи у каждого нашего пользователя.
    С сегодняшнего дня, за каждую восстановленную ссылку мы заплатим Вам.
    Подробнее тут -> ссылка
  • Перенесем твои заслуги с другого ресурса!
    Мы понимаем как сложно прокачивать аккаунты на форумах, вроде раскачал аккаунт, а тут появляется ресурс в 100 раз круче но тоже с системой прокачки и снова качать аккаунт...
    Предлагаем вам перенести Ваши заслуги на другом подобном ресурсе к нам.
    Подробности описаны тут -> ссылка
  • Вы можете получать по 2.5% с каждой покупки и продажи на маркете! Подробности в теме Партнёрская программа
Если Вы не хотите скачивать, Вы всегда можетепосмотретьонлайн, просто нажмите кнопку ниже :

Открыть плеер

Torrent_Bot

Торрент-Бот
Бот форума
4 Окт 2016
102
157
20



Информация о фильме
Название: Не уступить Штейнам
Оригинальное название: Keeping Up with the Steins
Год выхода: 2006
Жанр: Комедия
Режиссер: Скотт Маршалл
В ролях: Дэрил Сабара, Джейми Герц, Джереми Пивен, Шерил Хайнс, Марк Джон Джеффрис, Том Хайнс, Картер Дженкинс, Сандра Тейлор, Ларри Миллер, Миранда Косгров, Бриттани Робертсон, ДиДжей Квик, Дорис Робертс, Гэрри Маршалл, Скай Беар Агиляр, Дэрил Ханна, Яронь Ловенштейн, Ричард Бенджамин, Майкл П. Уолш, Гилфорд Адамс, Сэм Сарпонг, Леон Диуэйн Кози, Патрик Ричвуд, Брайна Вайсс, Синтия Фрост, Уолтер Герц, Нил Даймонд, Джозеф Лео Бвари, Джулиус Каллахан, Дженнифер Де Минко, Эллисон Флэшмен, Адам Голдберг, Майкл Молтен, Билл О`Рейли, Бекки Стоктон

О фильме: Событие, вокруг которого будет вращаться сюжет данной кинокартины — бар-мицва. Как известно, бар-мицву проходят еврейские мальчики по достижении 13-летия, что знаменует собою переход от детского возраста во взрослый. И для главного героя, Бенджамина Фидлера, этот день будет очень непрост. Мало того, что необходимо продумать огромное количество разных мелочей организационного плана, так еще и нужно подготовиться к прочтению отрывка из Торы. А это, согласитесь, дело серьезное. Особенно для 13-летнего мальчика.
Впрочем, если бы все этим и ограничивалось — фильм был бы малоинтересным. Поэтому у Бенджамина есть еще одна задача — на бар-мицву он приглашает своего дедушку, который уже много лет находится в ссоре со своим сыном, отцом Бенджамина. Наверное, это была не очень хорошая идея… но ведь должен рано или поздно настать момент примирения...



Страна: США
Студия: Miramax Films
Продолжительность: 01:30:04
Перевод: Профессиональный многоголосый | Первый канал

Файл
Кодек: MPEG-4 AVC
Качество: WEB-DL 1080p
Видео: 9333 Кбит/с, 1920x1040, 23.976 кадр/с
Звук:
Аудио #1: AC3, 48 Гц, 192 Кбит/сек, 2 ch (L + R) | Русский | MVO
Аудио #2: AC3, 48 Гц, 640 Кбит/сек, 6 ch (L C R, + L R, LFE) | Английский
Субтитры: Английские

Семпл
MI
Общее
Уникальный идентификатор : 74661328564122695413906055968230217154 (0x382B3FB3C70DDF95737588208FB015C2)
Полное имя : D:ТоррентыKeeping.Up.with.the.Steins.2006.1080p.AMZN.WEBRip.DDP5.1.x264-alfaHDNe.ustupit.Shteynam.2006.x264.WEB-DL(1080p)-MediaBit.mkv
Формат : Matroska
Версия формата : Version 4
Размер файла : 6,40 Гбайт
Продолжительность : 1 ч. 30 м.
Общий поток : 10,2 Мбит/сек
Название фильма : Не уступить Штейнам / Keeping Up with the Steins (2006) - MediaBit
Дата кодирования : UTC 2020-07-21 20:24:51
Программа кодирования : mkvmerge v25.0.0 ('Prog Noir') 64-bit
Библиотека кодирования : libebml v1.3.6 + libmatroska v1.4.9

Видео
Идентификатор : 1
Формат : AVC
Формат/Информация : Advanced Video Codec
Профиль формата : High@L4
Настройки формата : CABAC / 4 Ref Frames
Параметр CABAC формата : Да
Параметр RefFrames формата : 4 кадра
Идентификатор кодека : V_MPEG4/ISO/AVC
Продолжительность : 1 ч. 30 м.
Вид битрейта : Постоянный
Битрейт : 9 333 Кбит/сек
Номинальный битрейт : 10 000 Кбит/сек
Ширина : 1 920 пикселей
Высота : 1 040 пикселей
Соотношение сторон : 1,85:1
Режим частоты кадров : Постоянный
Частота кадров : 23,976 (24000/1001) кадра/сек
Цветовое пространство : YUV
Субдискретизация насыщенности : 4:2:0
Битовая глубина : 8 бит
Тип развёртки : Прогрессивная
Бит/(Пиксели*Кадры) : 0.195
Размер потока : 5,87 Гбайт (92%)
Заголовок : MediaBit
Язык : English
Default : Да
Forced : Нет
Цветовой диапазон : Limited
Основные цвета : BT.709
Характеристики трансфера : BT.709
Коэффициенты матрицы : BT.709

Аудио #1
Идентификатор : 2
Формат : AC-3
Формат/Информация : Audio Coding 3
Коммерческое название : Dolby Digital
Идентификатор кодека : A_AC3
Продолжительность : 1 ч. 30 м.
Вид битрейта : Постоянный
Битрейт : 192 Кбит/сек
Каналы : 2 канала
Channel layout : L R
Частота : 48,0 КГц
Частота кадров : 31,250 кадров/сек (1536 SPF)
Метод сжатия : С потерями
Размер потока : 124 Мбайт (2%)
Заголовок : MVO | Первый канал
Язык : Russian
Service kind : Complete Main
Default : Да
Forced : Нет

Аудио #2
Идентификатор : 5
Формат : AC-3
Формат/Информация : Audio Coding 3
Коммерческое название : Dolby Digital
Идентификатор кодека : A_AC3
Продолжительность : 1 ч. 30 м.
Вид битрейта : Постоянный
Битрейт : 640 Кбит/сек
Каналы : 6 каналов
Channel layout : L R C LFE Ls Rs
Частота : 48,0 КГц
Частота кадров : 31,250 кадров/сек (1536 SPF)
Метод сжатия : С потерями
Размер потока : 412 Мбайт (6%)
Заголовок : Original
Язык : English
Service kind : Complete Main
Default : Нет
Forced : Нет

Текст #1
Идентификатор : 3
Формат : UTF-8
Идентификатор кодека : S_TEXT/UTF8
Идентификатор кодека/Информация : UTF-8 Plain Text
Продолжительность : 1 ч. 29 м.
Битрейт : 84 бит/сек
Count of elements : 1775
Размер потока : 55,2 Кбайт (0%)
Язык : English
Default : Нет
Forced : Нет

Текст #2
Идентификатор : 4
Формат : UTF-8
Идентификатор кодека : S_TEXT/UTF8
Идентификатор кодека/Информация : UTF-8 Plain Text
Продолжительность : 1 ч. 29 м.
Битрейт : 87 бит/сек
Count of elements : 1882
Размер потока : 57,4 Кбайт (0%)
Заголовок : SDH
Язык : English
Default : Нет
Forced : Нет
Скриншоты
Релиз от:
 

Вложения

  • 19,3 KB Просмотры: 0
    Личеров 0
    Сидеров 0
    Файлов 1
    Объем 6,4 GB

Привет!

Мы группа людей которые решили помочь другим в решении их проблем, а так же пользователям с поиском самых свежих и качественных инфопродуктов. За 4 с небольшим месяца мы создали этот форум на который заходят ежедневно тысячи человек и посещаемость постоянно растёт. Мы создали панель лицензирования для защиты PHP скриптов от воровства и SEO панель для мониторинга наших сайтов и выбора верной стратегии их развития. Мы надеемся что то что мы создали пригодится Вам и возможно Вы поможете нам развиваться и совершенствоваться вместе с Вами.

Статистика форума

Темы
405.450
Сообщения
462.439
Пользователи
80.495
Новый пользователь
РУС111273

Приложения форума для iOS и Android


У ркн там нет власти ;)
Приватные разговоры
Помощь Пользователи
    Вы не присоединились ни к одной комнате.