За последнюю неделю опубликовано 82 новых материалов.
Инструкция новичку Путеводитель по форуму Прокси для Telegram Показать подсказки , это бомба!

Скачать Не родись красивым (2008) DVDRip от ivandubskoj бесплатно через торрент

  • Поучаствуй (в качестве покупателя) в любых пяти совместных покупках (кроме завершённых и "Моментальных") и получи группу "Новичок" навсегда -> ссылка на раздел
  • Получай до 480 рублей за каждого приглашенного пользователя!
    представляем Вам очередное расширение партнерской программы, подробности описаны тут -> ссылка
  • 90% материалов доступно к скачиванию после простой регистрации!
    Если же ты хочешь скачивать материалы без требования оставлять отзывы то получи группу "Новичок", 10 способов повышения описаны тут -> ссылка
  • К сожалению количество битых ссылок растет и мы уже не можем их оперативно восстанавливать поэтому просим помощи у каждого нашего пользователя.
    С сегодняшнего дня, за каждую восстановленную ссылку мы заплатим Вам.
    Подробнее тут -> ссылка
  • Перенесем твои заслуги с другого ресурса!
    Мы понимаем как сложно прокачивать аккаунты на форумах, вроде раскачал аккаунт, а тут появляется ресурс в 100 раз круче но тоже с системой прокачки и снова качать аккаунт...
    Предлагаем вам перенести Ваши заслуги на другом подобном ресурсе к нам.
    Подробности описаны тут -> ссылка
  • Вы можете получать по 2.5% с каждой покупки и продажи на маркете! Подробности в теме Партнёрская программа
Если Вы не хотите скачивать, Вы всегда можетепосмотретьонлайн, просто нажмите кнопку ниже :

Открыть плеер

Torrent_Bot

Торрент-Бот
Бот форума
4 Окт 2016
104
152
20
Информация о фильме
Название: Не родись красивым...
Год выхода: 2008
Жанр: Комедия, драма, мелодрама, приключения
Режиссёр: Максим Паперник
В ролях: Дмитрий Паламарчук, Мария Аронова, Игорь Письменный, Дарья Юргенс (Лесникова), Татьяна Бондаренко, Антон Васильев, Виталий Куклин, Андрей Бабенко, Альберт Афонин, Светлана Васильева

О фильме: Совладельцы рекламного агентства «Мажор» Роберт и Марина живут в предвкушении крупной сделки с японским бизнесменом Сасаки. Этот контракт, как и многие другие, — заслуга исключительно Марины, которая вынуждена работать за двоих, пока ее коллега Роберт — гений рекламы и невероятно удачливый бизнесмен — с головой окунулся в омут тусовок и любовных авантюр.
Перед самым приездом господина Сасаки Роберт неожиданно исчезает. Конечно, у него были враги и завистники, но могли ли они зайти так далеко? Марина бросается на поиски компаньона, и неожиданно под колесами ее машины оказывается грязный оборванец, отдельными чертами напоминающий Роберта. К каким неожиданным последствиям приведет это столкновение?..



Выпущено: Форвард-фильм, Студия "Панорама", Россия
Продолжительность: 01:35:04
Перевод: Не требуется
Язык: Русский

Файл
Качество: DVDRip
Видео: XviD, 2001 Кбит/с, 704x384 (16:9), 25 кадр/с
Аудио: Dolby АC3, 192 Кбит/с, 48000 Гц, 2 канала (Стерео)



Автор рипа - ivandubskoj

MediaInfo
General
Complete name : Ne.rodis'.krasivim.2008.DVDRip.avi
Format : AVI
Format/Info : Audio Video Interleave
File size : 1.46 GiB
Duration : 1h 35mn
Overall bit rate : 2 201 Kbps
Movie name : Не родись красивым (2008) DVDRip
Recorded date : 01.02.2014
Writing application : VirtualDubMod 1.5.10.3 (build 2550/release)
Writing library : VirtualDubMod build 2550/release
Copyright : rip by ivandubskoj

Video
ID : 0
Format : MPEG-4 Visual
Format profile : Advanced Simple@L5
Format settings, BVOP : 1
Format settings, QPel : No
Format settings, GMC : No warppoints
Format settings, Matrix : Default (MPEG)
Codec ID : XVID
Codec ID/Hint : XviD
Duration : 1h 35mn
Bit rate : 2 001 Kbps
Width : 704 pixels
Height : 384 pixels
Display aspect ratio : 16:9
Frame rate : 25.000 fps
Color space : YUV
Chroma subsampling : 4:2:0
Bit depth : 8 bits
Scan type : Progressive
Compression mode : Lossy
Bits/(Pixel*Frame) : 0.296
Stream size : 1.33 GiB (91%)
Writing library : XviD 73

Audio
ID : 1
Format : AC-3
Format/Info : Audio Coding 3
Mode extension : CM (complete main)
Codec ID : 2000
Duration : 1h 35mn
Bit rate mode : Constant
Bit rate : 192 Kbps
Channel(s) : 2 channels
Channel positions : Front: L R
Sampling rate : 48.0 KHz
Bit depth : 16 bits
Compression mode : Lossy
Stream size : 131 MiB (9%)
Alignment : Split accross interleaves
Interleave, duration : 64 ms (1.60 video frames)
Interleave, preload duration : 500 ms
Title : Russian
Скриншоты

 

Вложения

  • 15,6 KB Просмотры: 1
    Личеров 0
    Сидеров 0
    Файлов 1
    Объем 1,5 GB

Привет!

Мы группа людей которые решили помочь другим в решении их проблем, а так же пользователям с поиском самых свежих и качественных инфопродуктов. За 4 с небольшим месяца мы создали этот форум на который заходят ежедневно тысячи человек и посещаемость постоянно растёт. Мы создали панель лицензирования для защиты PHP скриптов от воровства и SEO панель для мониторинга наших сайтов и выбора верной стратегии их развития. Мы надеемся что то что мы создали пригодится Вам и возможно Вы поможете нам развиваться и совершенствоваться вместе с Вами.

Статистика форума

Темы
404.526
Сообщения
461.392
Пользователи
80.022
Новый пользователь
Alvito

Приложения форума для iOS и Android


У ркн там нет власти ;)
Приватные разговоры
Помощь Пользователи
    Вы не присоединились ни к одной комнате.